New girl temporada 2 capitulos 3 al 5 tvriplatino

Saludos gente aqui les dejo los capitulo 3 al 5 de new girl temporada 2 todos los capitulos tienen las mismas caracteristicas



 New Girl es una serie de televisión estadounidense que se estrenó en Fox el 20 de septiembre de 2011.2 Está protagonizada por Zooey Deschanel, Jake Johnson, Max Greenfield, Lamorne Morris, y Hannah Simone. El 28 de septiembre de 2011, después de dos episodios al aire, Fox ordenó un adicional de 11 episodios del primer orden de 13 episodios, con lo que la primera temporada quedo con 24 episodios


La serie comienza con Jessica "Jess" Day (interpretada por Zooey Deschanel), una mujer peculiar, burbujeante de casi treinta años que da clases en una escuela primaria local de Los Ángeles. Jess comienza a buscar un nuevo lugar para vivir después de encontrar a su novio engañándola. Al ver un anuncio de un nuevo compañero de cuarto en Craigslist, se muda con tres jóvenes: Nick, Schmidt y Coach. Muy poco después de su traslado, Coach se va, y es sustituido por Winston, otro joven que había vivido en el apartamento con Nick y Schmidt.



Capturas



General
Complete name                  NEW GIRL T2 2X03 LAT.avi
Format                         : AVI
Format/Info                    : Audio Video Interleave
File size                      : 171 MiB
Duration                       : 21mn 27s
Overall bit rate               : 1 116 Kbps
Writing application            : VirtualDubMod 1.5.4.1 (build 2178/release)
Writing library                : Boilsoft AVI tool build 1/release

Video
ID                             : 0
Format                         : MPEG-4 Visual
Format profile                 : Advanced [email protected]
Format settings, BVOP          : Yes
Format settings, QPel          : No
Format settings, GMC           : No warppoints
Format settings, Matrix        : Custom
Codec ID                       : XVID
Codec ID/Hint                  : XviD
Duration                       : 21mn 27s
Bit rate                       : 979 Kbps
Width                          : 640 pixels
Height                         : 480 pixels
Display aspect ratio           : 4:3
Frame rate                     : 23.976 fps
Color space                    : YUV
Chroma subsampling             : 4:2:0
Bit depth                      : 8 bits
Scan type                      : Progressive
Compression mode               : Lossy
Bits/(Pixel*Frame)             : 0.133
Stream size                    : 150 MiB (88%)
Writing library                : XviD 64

Audio
ID                             : 1
Format                         : MPEG Audio
Format version                 : Version 1
Format profile                 : Layer 3
Mode                           : Joint stereo
Mode extension                 : MS Stereo
Codec ID                       : 55
Codec ID/Hint                  : MP3
Duration                       : 21mn 27s
Bit rate mode                  : Constant
Bit rate                       : 128 Kbps
Channel(s)                     : 2 channels
Sampling rate                  : 48.0 KHz
Compression mode               : Lossy
Stream size                    : 19.6 MiB (11%)
Alignment                      : Aligned on interleaves
Interleave, duration           : 42 ms (1.00 video frame)
Interleave, preload duration   : 504 ms


DESCARGA PUTLOCKER




DESCARGA BILLIONUPLOADS 




Bueno eso es todo por hoy 
New girl temporada 2 capitulos 3 al 5 tvriplatino
10 Puntos Score: 10/10
Visitas: 3032 Favoritos: 1
Ver los usuarios que votaron...
7 Comentarios New girl temporada 2 capitulos 3 al 5 tvriplatino
Muchas Gracias en serio Gracias por tomarte el Tiempo de capturarlas y subirlas Saludos
eres chingon we neta muchas gracias esta super buena la serie    
hola como estas disculpa por no a verme comunicado contigo pero estuve ocupado con el trabajo y tambi?
@hichig89 no te preocupes amigo, ahorita no ocupo ninguna serie o pelicula,se me descompuso mi disco duro de 500 gigas que tenia, y ya no tengo espacio ahora estoy con uno de 40gigas,y no se cuando pueda comprar uno de mas capacidad
gracias nuevamente
Para dejar un comentario Registrate! o.. eres ya usuario? Accede!