Estreno*Riddick|2013|WebRip|1.4Gb*

<a href="http://vendocasa.zxq.net/temp/identi_post.swf" target="_blank">[link]</a>

[link]





Estreno*Riddick|2013|WebRip|1.4Gb*











Traicionado por su propia especie y dado por muerto en un planeta desolado, Riddick lucha por la supervivencia contra depredadores alienígenas convirtiéndose en un ser más poderoso y peligroso que nunca.

Pronto, algunos de los cazadores de recompensa de la galaxia irán a buscar a Riddick. Sin embargo Riddick los tendrá donde quiere ya que está preparado para perpetrar su venganza justo antes de regresar a su planeta de origen para salvarlo de la destrucción.




Format : AVI
Format/Info : Audio Video Interleave
File size : 1.40 GiB
Duration : 1h 54mn
Overall bit rate : 1 742 Kbps
Writing application : VirtualDubMod 1.5.10.2 (build 2540/release)
Writing library : VirtualDubMod build 2540/release

Video
ID : 0
Format : MPEG-4 Visual
Format profile : Advanced [email protected]
Format settings, BVOP : 2
Format settings, QPel : No
Format settings, GMC : No warppoints
Format settings, Matrix : Default (H.263)
Muxing mode : Packed bitstream
Codec ID : XVID
Codec ID/Hint : XviD
Duration : 1h 54mn
Bit rate : 1 602 Kbps
Width : 692 pixels
Height : 306 pixels
Display aspect ratio : 2.25:1
Frame rate : 29.970 fps
Color space : YUV
Chroma subsampling : 4:2:0
Bit depth : 8 bits
Scan type : Progressive
Compression mode : Lossy
Bits/(Pixel*Frame) : 0.252
Stream size : 1.28 GiB (92%)
Writing library : XviD 64

Audio
ID : 1
Format : MPEG Audio
Format version : Version 1
Format profile : Layer 3
Codec ID : 55
Codec ID/Hint : MP3
Duration : 1h 54mn
Bit rate mode : Constant
Bit rate : 128 Kbps
Channel(s) : 2 channels
Sampling rate : 44.1 KHz
Compression mode : Lossy
Stream size : 105 MiB (7%)
Alignment : Split accross interleaves
Interleave, duration : 33 ms (1.00 video frame)
Interleave, preload duration : 500 ms








Enlaces De Descarga






Para realizar una correcta descarga usar JDownloader utilizar el password como lo indico a continuación









Aqui



CODECS PARA REPRODUCIR AUDIOS Y VIDEOS



REPRODUCTOR DE AUDIO Y VIDEO





Estreno*Riddick|2013|WebRip|1.4Gb*
8 Puntos Score: 4/10
Visitas: 5908 Favoritos: 6
Ver los usuarios que votaron...
20 Comentarios Estreno*Riddick|2013|WebRip|1.4Gb*
Me la llevo amigo.
Tiene subs??
no lo puedes poner por MEGA?
Veo que los subs estan en portugues.
Buscare otros
Cita emacs: Mostrar
en mega se caen muy rapido los links, encambio en putcloker duran un poco mas que mega, por eso la eleccion de ese servidor
joder que se conforman con poca calidad son unos pinches porotos jaja esta debe de ser un pelicul?
bien .. un super pelicula... peroesperare que mejore un poko mas la calidad.. graciass
Cita bonanott: Mostrar
muchas gracias riddick es  lo mas  
podrias pasar los link de putlocker, el jdownloader me marca problemas de conexion, se te agradeciaria man
como siempre excelente gracias
Muy buen aporte pero coinsido con @bonanott esta deveriamos de verla en la mejor calidad posible
Tiene subtitulos?

Si tiene, est?
esperando brrip latino gracias MONILLO
Gracias, pero el link de los subtitulos ya est?
Para dejar un comentario Registrate! o.. eres ya usuario? Accede!