La otra cara de Beverly Hills dvdrip sub comedia








 La Otra Cara de Beverly Hills
En su transformación de niña a mujer durante los cambiantes años 70, Vivian (Natasha Lyonne) tropieza con dos grandes problemas: su estricta y nómade familia, siempre de aquí para allá y, por otra parte, su floreciente sexualidad. Agregamos a esto la aparición de su vivaz prima (Marisa Tomei) y tenemos una explosiva dupla que nos probará que no es necesario ser ricos para tener diversión de primera categoría. Protagonizada además por auténticos clásicos del cine como Alan Arkin, Carl Reiner y Rita Moreno, "La Otra Cara de Beverly Hills" es una extraordinaria comedia que encanta y seduce.


Director:  Tamara Jenkins 
Actores:   Rita Moreno,  Carl Reiner,  Marisa Tomei,  Natasha Lyonne,  Alan Arkin, 




FICHA:
Slums of Beverly Hills 
Estados Unidos, 1998
92 minutos
Mayores de 14

Géneros:
  Comedia ( Comedias Adolescentes ) 
 Capturas

General
Complete name                  Slums of Beverly Hills (1998).avi
Format                         : AVI
Format/Info                    : Audio Video Interleave
File size                      : 658 MiB
Duration                       : 1h 30mn
Overall bit rate               : 1 012 Kbps

Video
ID                             : 0
Format                         : MPEG-4 Visual
Format profile                 : Advanced [email protected]
Format settings, BVOP          : Yes
Format settings, QPel          : No
Format settings, GMC           : No warppoints
Format settings, Matrix        : Default (H.263)
Codec ID                       : XVID
Codec ID/Hint                  : XviD
Duration                       : 1h 30mn
Bit rate                       : 906 Kbps
Width                          : 656 pixels
Height                         : 384 pixels
Display aspect ratio           : 1.708
Frame rate                     : 23.976 fps
Color space                    : YUV
Chroma subsampling             : 4:2:0
Bit depth                      : 8 bits
Scan type                      : Progressive
Compression mode               : Lossy
Bits/(Pixel*Frame)             : 0.150
Stream size                    : 590 MiB (90%)
Writing library                : XviD 1.1.0 (UTC 2005-11-22)

Audio
ID                             : 1
Format                         : MPEG Audio
Format version                 : Version 1
Format profile                 : Layer 3
Codec ID                       : 55
Codec ID/Hint                  : MP3
Duration                       : 1h 30mn
Bit rate mode                  : Constant
Bit rate                       : 96.0 Kbps
Channel(s)                     : 2 channels
Sampling rate                  : 48.0 KHz
Compression mode               : Lossy
Delay relative to video        : 24ms
Stream size                    : 62.5 MiB (9%)
Alignment                      : Split accross interleaves
Interleave, duration           : 42 ms (1.00 video frame)
Title                          : Audio Stream
Writing library                : LAME3.92




DESCARGA PUTLOCKER

 



SUBTITULOS EN ESPAÑOL
 



darle la extencion.avi

BILLIONUPLOADS
 
La otra cara de Beverly Hills dvdrip sub comedia
0 Puntos Score: 0/10
Visitas: 1853 Favoritos: 0
0 Comentarios La otra cara de Beverly Hills dvdrip sub comedia
Este post no tiene comentarios. Sea el primero!
Para dejar un comentario Registrate! o.. eres ya usuario? Accede!