Asesinos por naturaleza Dvdrip latino Naturalbornk

Asesinos por naturaleza dvdrip latino Natural born killer  

Micky y Mallory son una poco convencional pareja de jovenes amantes que sienten que han nacido para matar: son dos despiadados criminales que tienen atemorizada a la población. Un presentador de un programa sensacionalista se aprovecha de la fascinación que su personalidad ejerce sobre el público y convierte a los asesinos en héroes televisivos.

Titulo: Asesinos por naturaleza
Asesinos natos
Natural Born Killers
Año: 1994
Pais: Estados Unidos
Genero: Thriller, Acción, Romance, Crimen, Road Movie, Sátira, Asesinos en serie
Calidad: DVDRip
Audio: Latino
Director: Oliver Stone
Duración: 120min

Capturas


General
Complete name                Natural.Born.Killers.1994
Format                         : AVI
Format/Info                    : Audio Video Interleave
File size                      : 1.44 GiB
Duration                       : 1h 58mn
Overall bit rate               : 1 736 Kbps
Writing application            : VirtualDubMod 1.5.10.2 (build 2540/release)
Writing library                : VirtualDubMod build 2540/release

Video
ID                             : 0
Format                         : MPEG-4 Visual
Format profile                 : Advanced [email protected]
Format settings, BVOP          : Yes
Format settings, QPel          : No
Format settings, GMC           : No warppoints
Format settings, Matrix        : Default (H.263)
Codec ID                       : XVID
Codec ID/Hint                  : XviD
Duration                       : 1h 58mn
Bit rate                       : 1 598 Kbps
Width                          : 720 pixels
Height                         : 400 pixels
Display aspect ratio           : 16:9
Frame rate                     : 23.976 fps
Color space                    : YUV
Chroma subsampling             : 4:2:0
Bit depth                      : 8 bits
Scan type                      : Progressive
Compression mode               : Lossy
Bits/(Pixel*Frame)             : 0.231
Stream size                    : 1.33 GiB (92%)
Writing library                : XviD 1.2.1 (UTC 2008-12-04)

Audio
ID                             : 1
Format                         : MPEG Audio
Format version                 : Version 1
Format profile                 : Layer 3
Mode                           : Joint stereo
Mode extension                 : MS Stereo
Codec ID                       : 55
Codec ID/Hint                  : MP3
Duration                       : 1h 58mn
Bit rate mode                  : Constant
Bit rate                       : 128 Kbps
Channel(s)                     : 2 channels
Sampling rate                  : 44.1 KHz
Compression mode               : Lossy
Stream size                    : 109 MiB (7%)
Alignment                      : Split accross interleaves
Interleave, duration           : 42 ms (1.00 video frame)
Interleave, preload duration   : 500 ms
Writing library                : LAME3.98.2

putlocker
 




Asesinos por naturaleza Dvdrip latino Naturalbornk
0 Puntos Score: 0/10
Visitas: 4683 Favoritos: 6
5 Comentarios Asesinos por naturaleza Dvdrip latino Naturalbornk
buen aporte man
gracias
Gracias, excelente pel?
Buen aporte.
Muchas gracias por compartirlo.
Salu2      
Tarantino rules!!!!!!!!!!!!!!!!!!
gracias!!!!!!!!!!!!!
Gracias por el aporte y en latino que es lo mejor  
Para dejar un comentario Registrate! o.. eres ya usuario? Accede!