Pena ajena (Orange county) Dvdrip sub jack black

Saludos aqui les dejo esta pelicula,la estube buscando en español latino pero no la pude encontrar, asi que ahi se las dejo subtitulada en español, la calidad es exelente y los subtitulos tambien,

   Orange County (Colgado, pringado y sin carrera en España), es una película estadounidense de 2002 del género comedia, protagonizada por Colin Hanks y Jack Black. Fue estrenada el 14 de enero de 2002. La película fue distribuida por Paramount Pictures y producida por MTV Films y Scott Rudin. Fue dirigida por Jake Kasdan y escrita por Mike White.

Shaun Brumder (Colin Hanks) es un joven surfista oriundo del Condado de Orange, en California quien, después de la muerte de su mejor amigo Lonny (Bret Harrison), se desilusiona por su estilo vida y busca un camino diferente. Se tropieza con un libro titulado "Straight Jacket" y decide convertirse en escritor. Sueña con ir a la Universidad Stanford a estudiar con el autor del libro Marcus Skinner, y de esta forma alejarse de su familia disfuncional. Cuando su solicitud de ingreso es rechazada después de que su consejera escolar (Lily Tomlin) la traspapelara, Shaun intenta entrar a Stanford de cualquier forma posible, con un poco de ayuda de su novia Ashley (Schuyler Fisk) y su hermano mayor Lance (Jack Black).

Capturas


General
Complete name                       Orange County.avi
Format                                   : AVI
Format/Info                              : Audio Video Interleave
File size                                : 699 MiB
Duration                                 : 1h 22mn
Overall bit rate mode                    : Variable
Overall bit rate                         : 1 190 Kbps
Writing application                      : VirtualDubMod 1.5.4.1 (build 2178/release)
Writing library                          : VirtualDubMod build 2178/release

Video
ID                                       : 0
Format                                   : MPEG-4 Visual
Format profile                           : Advanced [email protected]
Format settings, BVOP                    : 1
Format settings, QPel                    : No
Format settings, GMC                     : No warppoints
Format settings, Matrix                  : Custom
Codec ID                                 : XVID
Codec ID/Hint                            : XviD
Duration                                 : 1h 22mn
Bit rate                                 : 1 065 Kbps
Width                                    : 720 pixels
Height                                   : 400 pixels
Display aspect ratio                     : 16:9
Frame rate                               : 23.976 fps
Color space                              : YUV
Chroma subsampling                       : 4:2:0
Bit depth                                : 8 bits
Scan type                                : Progressive
Compression mode                         : Lossy
Bits/(Pixel*Frame)                       : 0.154
Stream size                              : 626 MiB (90%)
Writing library                          : XviD 1.2.1 (UTC 2008-12-04)

Audio
ID                                       : 1
Format                                   : MPEG Audio
Format version                           : Version 1
Format profile                           : Layer 3
Mode                                     : Joint stereo
Mode extension                           : MS Stereo
Codec ID                                 : 55
Codec ID/Hint                            : MP3
Duration                                 : 1h 22mn
Bit rate mode                            : Variable
Bit rate                                 : 112 Kbps
Nominal bit rate                         : 128 Kbps
Channel(s)                               : 2 channels
Sampling rate                            : 48.0 KHz
Compression mode                         : Lossy
Stream size                              : 65.8 MiB (9%)
Alignment                                : Aligned on interleaves
Interleave, duration                     : 24 ms (0.58 video frame)
Interleave, preload duration             : 164 ms
Writing library                          : LAME3.98r
Encoding settings                        : -m j -V 4 -q 2 -lowpass 17 --abr 128
Language                                 : English


PUTLOCKER
 



BILLIONUPLOADS
 
[/size]
[/b]

Pena ajena (Orange county) Dvdrip sub jack black
20 Puntos Score: 10/10
Visitas: 5250 Favoritos: 4
Ver los usuarios que votaron...
8 Comentarios Pena ajena (Orange county) Dvdrip sub jack black
Pues tiene pinta de estar entretenida, as?
Gracias busque mucho esta pelicula solo por el sountrack con foofighters
Gracias por la movie; links activos al 2014!
@SnakeJhon de nada amigo encontre el dvd full de esta peli y al parecer viene con audio latino eso dice en la portada,pero no he tenido tiempo de ir a rentarla pero pronto la subire
Esperando el DvD full se agradece tu esfuerzo & trabajo en subir tan buena movie.
Muchcas gracias por compartir. Links still active?
Muy buena pel?
Para dejar un comentario Registrate! o.. eres ya usuario? Accede!