New girl temporada 2, capitulos 1 y 2 tvrip latino

 Aqui les dejo los primeros dos capitulos de la temporada 2, los demas los ire subiendo en estos dias

New Girl es una serie de televisión estadounidense que se estrenó en Fox el 20 de septiembre de 2011.2 Está protagonizada por Zooey Deschanel, Jake Johnson, Max Greenfield, Lamorne Morris, y Hannah Simone. El 28 de septiembre de 2011, después de dos episodios al aire, Fox ordenó un adicional de 11 episodios del primer orden de 13 episodios, con lo que la primera temporada quedo con 24 episodios


La serie comienza con Jessica "Jess" Day (interpretada por Zooey Deschanel), una mujer peculiar, burbujeante de casi treinta años que da clases en una escuela primaria local de Los Ángeles. Jess comienza a buscar un nuevo lugar para vivir después de encontrar a su novio engañándola. Al ver un anuncio de un nuevo compañero de cuarto en Craigslist, se muda con tres jóvenes: Nick, Schmidt y Coach. Muy poco después de su traslado, Coach se va, y es sustituido por Winston, otro joven que había vivido en el apartamento con Nick y Schmidt.


capturas todos los videos tiene las mismas caracteristicas






General
Complete name                  :new girlnew girl t 2NEW GIRL T2 2X01 LAT.avi
Format                         : AVI
Format/Info                    : Audio Video Interleave
File size                      : 179 MiB
Duration                       : 21mn 24s
Overall bit rate               : 1 172 Kbps
Writing application            : VirtualDubMod 1.5.4.1 (build 2178/release)
Writing library                : Boilsoft AVI tool build 1/release

Video
ID                             : 0
Format                         : MPEG-4 Visual
Format profile                 : Advanced [email protected]
Format settings, BVOP          : Yes
Format settings, QPel          : No
Format settings, GMC           : No warppoints
Format settings, Matrix        : Custom
Codec ID                       : XVID
Codec ID/Hint                  : XviD
Duration                       : 21mn 24s
Bit rate                       : 1 034 Kbps
Width                          : 640 pixels
Height                         : 480 pixels
Display aspect ratio           : 4:3
Frame rate                     : 23.976 fps
Color space                    : YUV
Chroma subsampling             : 4:2:0
Bit depth                      : 8 bits
Scan type                      : Progressive
Compression mode               : Lossy
Bits/(Pixel*Frame)             : 0.140
Stream size                    : 158 MiB (88%)
Writing library                : XviD 64

Audio
ID                             : 1
Format                         : MPEG Audio
Format version                 : Version 1
Format profile                 : Layer 3
Mode                           : Joint stereo
Mode extension                 : MS Stereo
Codec ID                       : 55
Codec ID/Hint                  : MP3
Duration                       : 21mn 24s
Bit rate mode                  : Constant
Bit rate                       : 128 Kbps
Channel(s)                     : 2 channels
Sampling rate                  : 48.0 KHz
Compression mode               : Lossy
Stream size                    : 19.6 MiB (11%)
Alignment                      : Aligned on interleaves
Interleave, duration           : 42 ms (1.00 video frame)
Interleave, preload duration   : 504 ms



PUTLOCKER


BILLIONUPLOADS



New girl temporada 2, capitulos 1 y 2 tvrip latino
40 Puntos Score: 8/10
Visitas: 3540 Favoritos: 1
Ver los usuarios que votaron...
12 Comentarios New girl temporada 2, capitulos 1 y 2 tvrip latino
excelente aporte amigo +10  
Brother que bueno, gracias por subir la segunda deveras que gracias... buen trabajo
Wow muxas grax!!
no es nada en contra de tu post...pero la voces al latino como que no ....igual te dejo ptos por el esfuerzo
Muchas Gracias
XD
oye bro este cuando bajo los capitulos me aparecen en: ".a" en la extensi?
@L30DAZ amigo la extencion correcta es    .avi
hahaha ok muchas gracias bro  
Gracias por compartir  
Para dejar un comentario Registrate! o.. eres ya usuario? Accede!