Oops.. Este post tiene los enlaces eliminados!

Identi revisa las denuncias de los usuarios en busca de enlaces eliminados que no dejan descargar los archivos, este mensaje te informa que este post que estas viendo tiene los enlaces eliminados.

Usa el Buscador

Por favor, te recomendamos que uses el buscador para encontrar más alternativas.

World War Z M2TS (Propio)

  • Categoría: Reciclaje
  • Publicado hace más de 3 años
World War Z M2TS



Esta vez les traigo una pelicula muy buena para su ps3 o xbox  y muy ligera,yo ya probe la pelicula y esta muy bien los links y las capturas son propias espero la disfruten







IMDb: 7,1 
Naciones Unidas para los empleados Gerry carril atraviesa el mundo en una carrera contra el tiempo para detener la pandemia zombie que está derribando los ejércitos y gobiernos, y amenaza con destruir a la humanidad misma.

Dirección: Marc Forster
Escritores: Mateo Michael Carnahan (guión), de Drew Goddard (guión), 4 créditos más  »
Estrellas: Brad Pitt , Mireille Enos , Daniella Kertesz | Ver Reparto y Personal Completos
Video
ID                             : 4113 (0x1011)

Menu ID                        : 1 (0x1)

Format                         : AVC

Format/Info                    : Advanced Video Codec

Format profile                 : [email protected]

Format settings, CABAC         : Yes

Format settings, ReFrames      : 4 frames

Codec ID                       : 27

Duration                       : 2h 3mn

Bit rate mode                  : Variable

Bit rate                       : 2 000 Kbps

Maximum bit rate               : 40.0 Mbps

Width                          : 1 920 pixels

Height                         : 800 pixels

Display aspect ratio           : 2.40:1

Frame rate                     : 23.976 fps

Color space                    : YUV

Chroma subsampling             : 4:2:0

Bit depth                      : 8 bits

Scan type                      : Progressive

Bits/(Pixel*Frame)             : 0.054

Stream size                    : 1.81 GiB (73%)

Writing library                : x264 core 133 r2334 a3ac64b



Audio

ID                             : 4352 (0x1100)

Menu ID                        : 1 (0x1)

Format                         : AC-3

Format/Info                    : Audio Coding 3

Mode extension                 : CM (complete main)

Format settings, Endianness    : Big

Codec ID                       : 129

Duration                       : 2h 3mn

Bit rate mode                  : Constant

Bit rate                       : 640 Kbps

Channel count                  : 6 channels

Channel positions              : Front: L C R, Side: L R, LFE

Sampling rate                  : 48.0 KHz

Bit depth                      : 16 bits

Compression mode               : Lossy

Stream size                    : 563 MiB (22%)

Language                       : Spanish













Enlaces De Descarga

contraseña





World War Z M2TS (Propio)
0 Puntos Score: 0/10
Visitas: 1807 Favoritos: 0
3 Comentarios World War Z M2TS (Propio)
cual es la contrase?
@d2verdes


espero que te sirva que e tenido problemas con los archivos .rar
Para dejar un comentario Registrate! o.. eres ya usuario? Accede!