Dragon Ball Z La Batalla delos Dioses 720p japones


 La historia se desarrolla varios años después de la batalla con Majin Buu. Birusu, el dios de la destrucción que ha mantenido el equilibrio del universo, ha despertado de un largo sueño. Escucha rumores de que un Saiyan (Saiya-jin) derrotó a Freezer, Birusu llega en busca de Goku. 

Emocionado por que un oponente poderoso ha aparecido después de tanto tiempo, Goku ignora a Kaiosama y desafía Birusu en una batalla. Sin embargo, Goku no es rival para el poder abrumador Birusu y es derrotado. Birusu se aleja después de pronunciar un mensaje ominoso: "¿Hay alguien en la Tierra más digno de destruir?" Podrá Goku y los demás realmente ser capaces de detener a el Dios de la Destrucción?! 

CAPTURAS PROPIAS







General
Complete name                  Dragon Ball Z Battle of Gods.mp4
Format                         : MPEG-4
Format profile                 : Base Media
Codec ID                       : isom
File size                      : 622 MiB
Duration                       : 1h 25mn
Overall bit rate mode          : Variable
Overall bit rate               : 1 022 Kbps
Encoded date                   : UTC 2013-09-12 21:24:18
Tagged date                    : UTC 2013-09-12 21:24:18

Video
ID                             : 1
Format                         : AVC
Format/Info                    : Advanced Video Codec
Format profile                 : [email protected]
Format settings, CABAC         : Yes
Format settings, ReFrames      : 4 frames
Codec ID                       : avc1
Codec ID/Info                  : Advanced Video Coding
Duration                       : 1h 25mn
Bit rate                       : 923 Kbps
Maximum bit rate               : 6 426 Kbps
Width                          : 1 280 pixels
Height                         : 720 pixels
Display aspect ratio           : 16:9
Frame rate mode                : Constant
Frame rate                     : 23.976 fps
Color space                    : YUV
Chroma subsampling             : 4:2:0
Bit depth                      : 8 bits
Scan type                      : Progressive
Bits/(Pixel*Frame)             : 0.042
Stream size                    : 562 MiB (90%)
Writing library                : x264 core 129 r2230 1cffe9f
Encoding settings              : cabac=1 / ref=4 / deblock=1:0:0 / analyse=0x3:0x113 / me=umh / subme=7 / psy=1 / psy_rd=0.40:0.00 / mixed_ref=1 / me_range=16 / chroma_me=1 / trellis=1 / 8x8dct=1 / cqm=0 / deadzone=21,11 / fast_pskip=1 / chroma_qp_offset=-2 / threads=4 / lookahead_threads=1 / sliced_threads=0 / nr=0 / decimate=1 / interlaced=0 / bluray_compat=0 / constrained_intra=0 / bframes=5 / b_pyramid=2 / b_adapt=2 / b_bias=0 / direct=3 / weightb=1 / open_gop=0 / weightp=2 / keyint=240 / keyint_min=23 / scenecut=40 / intra_refresh=0 / rc_lookahead=40 / rc=crf / mbtree=1 / crf=24.0 / qcomp=0.60 / qpmin=0 / qpmax=69 / qpstep=5 / ip_ratio=1.40 / aq=1:0.80
Encoded date                   : UTC 2013-09-12 21:24:18
Tagged date                    : UTC 2013-09-12 21:24:58

Audio                         japones
ID                             : 2
Format                         : AAC
Format/Info                    : Advanced Audio Codec
Format profile                 : LC
Codec ID                       : 40
Duration                       : 1h 25mn
Bit rate mode                  : Variable
Bit rate                       : 96.0 Kbps
Maximum bit rate               : 132 Kbps
Channel(s)                     : 2 channels
Channel positions              : Front: L R
Sampling rate                  : 48.0 KHz
Compression mode               : Lossy
Stream size                    : 58.3 MiB (9%)
Encoded date                   : UTC 2013-09-12 21:24:54
Tagged date                    : UTC 2013-09-12 21:24:58

Subtitulos no


billionuploads
Dragon Ball Z La Batalla delos Dioses 720p japones
85 Puntos Score: 8.5/10
Visitas: 7520 Favoritos: 7
Ver los usuarios que votaron...
32 Comentarios Dragon Ball Z La Batalla delos Dioses 720p japones
Cita lmijares_2: Mostrar
Avisame cuando tengas subtitulos man! kfa
@lmijares_2 @xilensis aun no hay subtitulos en espa?
Cita juanw200: Mostrar
y los sub a q oras carnal se agradece
mmmmmmmmm... me tienta bajarla.. pero voy a esperar dos semanas mas para verla en el cine.. esto no se hace es como ofrecer mariguana a un drogadicto en rehabilitacion jajaja
fuera de linea los enlaces!!
@elnando18 hahahaha me mato de risa tu comentario!! Saludos!
@juanw200 Excelente aporte amigo!!
@hec1891 Amigo tu me pediste una pelicula??
me tienta pero me esperare a verla en el cine dentro de dos semanas
Si man, Quiero matar a mi jefe... en 720p xfa man
Solo dura 1:25?  pense que habian dicho que duraba mas la pelicula
TOP pero esta lo voy a ver en el CINE
La acaba de terminar de ver y les recomiendo que mejor se esperen a verla en los  cines , pienso que les van a gustar mas escucharla espa?
gracias men   que rapido salio ....
a verlo se un poco japones   xd ?
estaria bueno bajarla?
De una descargando amigo!! Muchas gracias
Lo siente pero esto lo voy a ir a ver en cine, espero mejor algunas semanas...de todas formas gran aporte gracias.
thanks   mucho  :Ds thanks    Tengo casi 29 y meciento como un chamaco por ver la peliculas 1000 Gracias
thanks     mucho     thanks      Tengo casi 29 y meciento como un chamaco por ver la peliculas 1000 Gracias
Cita elnando18: Mostrar
sabeeeee
estoy a punto de mearme de la emocion  
de los mejores aportes pero esta me la veo en el cine
ya a baje gracias por ponerla y evitarme ir a verla al cine +10
respecto a la pelicula ni me gusto para nada no tiene el espiritu de dragon ball
elimina el post por favor, pues deber?
No deberian subir esta peli hasta despues de su estreno ,hay pocas pelis de anime que se ven en cines de latinoamerica y si va poca gente a verla pues desalentaria a que hayan mas como esta asi que muy mal hecho a todos aquellos que la suben.
Por ultimo si ya hemos llegado a este punto si la bajan almenos bayan a verla al cine apoyen a que mas pelis vengan a nuestras salas y poder disfrutarlas en pantalla grande.
Yo si voy al cine a levantar mis manos para la genki dama
y luego la veo con mi proyector en mi casa  
Para dejar un comentario Registrate! o.. eres ya usuario? Accede!