El color purpura 1985 dvdrip latino avi xvid


Saludos aqui les comparto esta exelente pelicula que no puede faltar en tu coleccion,me costo mucho conseguirla en español latino,pero como dicen el que busca encuentra,y hoy se las vengo a compartir

El color púrpura (en inglés, The Color Purple) es una película dirigida por Steven Spielberg en 1985, basada en la novela homónima de Alice Walker ganadora del Premio Pulitzer en 1983.

La historia se centra en la vida de Celie, una joven muchacha afrodescendiente, a principios del siglo XX. Celie tiene 14 años y está embarazada de su padre. Partiendo de este momento, se cuenta su difícil existencia durante los siguientes treinta años. El padre de Celie la vende a un hombre que la maltrata tanto física como psicológicamente y la tiene esclavizada durante la mayor parte de su vida, en los que es separada de su hermana Nettie, que es llevada a África

Título original
The Color Purple
Año
1985
Duración
147 min.
País
 Estados Unidos
Director
Steven Spielberg
Guión
Menno Meyjes (Novela: Alice Walker)
Música
Quincy Jones
Fotografía
Allen Daviau
Reparto
Danny Glover, Whoopi Goldberg, Adolph Caesar, Akosua Busia, Laurence Fishburne, Oprah Winfrey, Rae Dawn Chong, Margaret Avery, Bennet Guillory

Capturas








General
Complete name                  EL COLOR PURPURA DVDRIP LATINO.avi
Format                         : AVI
Format/Info                    : Audio Video Interleave
File size                      : 1.58 GiB
Duration                       : 2h 33mn
Overall bit rate               : 1 469 Kbps
Writing application            : VirtualDubMod 1.5.10.2 (build 2540/release)
Writing library                : VirtualDubMod build 2540/release

Video
ID                             : 0
Format                         : MPEG-4 Visual
Format profile                 : Advanced [email protected]
Format settings, BVOP          : Yes
Format settings, QPel          : No
Format settings, GMC           : No warppoints
Format settings, Matrix        : Custom
Codec ID                       : XVID
Codec ID/Hint                  : XviD
Duration                       : 2h 33mn
Bit rate                       : 1 268 Kbps
Width                          : 720 pixels
Height                         : 416 pixels
Display aspect ratio           : 1.731
Frame rate                     : 23.976 fps
Color space                    : YUV
Chroma subsampling             : 4:2:0
Bit depth                      : 8 bits
Scan type                      : Progressive
Compression mode               : Lossy
Bits/(Pixel*Frame)             : 0.177
Stream size                    : 1.36 GiB (86%)
Writing library                : XviD 64

Audio
ID                             : 1
Format                         : AC-3
Format/Info                    : Audio Coding 3
Mode extension                 : CM (complete main)
Format settings, Endianness    : Big
Codec ID                       : 2000
Duration                       : 2h 33mn
Bit rate mode                  : Constant
Bit rate                       : 192 Kbps
Channel(s)                     : 1 channel
Channel positions              : Front: C
Sampling rate                  : 48.0 KHz
Bit depth                      : 16 bits
Compression mode               : Lossy
Stream size                    : 211 MiB (13%)
Alignment                      : Split accross interleaves
Interleave, duration           : 42 ms (1.00 video frame)
Interleave, preload duration   : 500 ms

DESCARGA PUTLOCKER


BILLIONUPLOADS



Deja tu comentario si te sirvio
El color purpura 1985 dvdrip latino avi xvid
55 Puntos Score: 7.9/10
Visitas: 9372 Favoritos: 10
Ver los usuarios que votaron...
36 Comentarios El color purpura 1985 dvdrip latino avi xvid
gracias amigo saludos
con mambo amigo, tu si sabes que rock.
sube la de las horas, si puedes claro +10
sin duda la mejor pel?
que aportazo, gracias amigo la buscaba hace rato en latino, graciasss  
un gran clasico, muchas gracias.  
muy buena pelicula grax
muchisimas gracias juanw200 la verdad buscaba hace mucho tiempo esta pelicula me la consegui hace un rato atras pero la verdad es que se veia horrible asi que la tire en algun momento que grato es encontrarme con que la subiste asi que va para la coleccion, como dijeron por ahi arriba un peliculon de esos que se ven pocos
WN!! me van a amar por conseguir esta obra maestra!! yo la recuerdo porque marco mi ni?
@kobesoft @reformau @nomar123 @umbrellaa @alonsito42 @lopopo @fredy79 @alejandro_cr @eneas4777 @sureo777 @Overfriend gracias a todos por sus comentarios y que bueno que les gusto el aporte saludos
ya no estan activos :/ me sale error.
@umbrellaa amigo ya revise los links y todos estan activos, te recomiendo descargar con my pony
3EXCELENTE PELICULA..!!!!!!!!!!!!!!!!!
GRACIAS AMIGO!!!
Muchas gracias.....y excelente aporte....  
Excelente, excelente pel?
mil gracias viejo, todo en se?
Gracias por esta peli la andaba buscando
muy buena pelicula gracias
@IndiaRadhi de nada esta pelicula la converti de un blu ray de 50 gigas por eso se ve muy bien
Estupenda pel?
Gracias por la pel?
Hola amigo... Acabo de publicar tambi?
Links todavia activos.  
Muchas gracias por compartirla colega  
hola podrias resubir la pelicula??? putlocker y ano funciona y el otro menos, por favor, gracias, no la encuentro en latino
amigo los link estan muertos trata de subirla por mega
que tal amigo puedes subir la movi nuevamente por que e tratado de conseguirla por todos lado y no he tenido exito te lo agradeceria mucho ... saludos.
@Vare86 si quieres te paso solo el audio
perfecto ya lo enlazo a la movie muchas gracias @juanw200
@Vare86 dame tiempo y te lo subo
excelente @juanw200 espero tu comentario con el link
Para dejar un comentario Registrate! o.. eres ya usuario? Accede!