Oops.. Este post tiene los enlaces eliminados!

Identi revisa las denuncias de los usuarios en busca de enlaces eliminados que no dejan descargar los archivos, este mensaje te informa que este post que estas viendo tiene los enlaces eliminados.

Usa el Buscador

Por favor, te recomendamos que uses el buscador para encontrar más alternativas.

american psycho dvdrip latino xvid Christian Bale

  • Categoría: Reciclaje
  • Publicado hace más de 3 años



American Psycho es una novela publicada en 1991 por Bret Easton Ellis y que describe, en primera persona, los episodios en la vida de un yuppie asesino de Manhattan a finales de los ochenta. La novela está escrita tal como la escribiría un psicópata, en un estilo que expresa sus obsesiones, manías, sadismos, odio y vacío existencial: un largo monólogo que puede llegar a parecer incoherente en algunos pasajes, pero que corresponde al contexto de desquiciamiento mental del personaje.


El protagonista, Patrick Bateman, tiene veintisiete años y vive en el edificio American Gardens, entre la riqueza y sofisticación de la alta sociedad de Manhattan y Wall Street. Cultiva su cuerpo y apariencia, prestando gran atención a los objetos, las marcas y el diseño. Tiene novia y amante. Graduado en Harvard y con un máster en la Escuela de Negocios de Harvard, es vicepresidente del departamento de fusiones y adquisiciones en Pierce & Pierce. También es un asesino en serie, caníbal y practicante de sexo ultraviolento. Siente especial predilección por asesinar prostitutas jóvenes, aunque también comete deleznables crímenes con mendigos, artistas callejeros, homosexuales e inclusive niños. Sus principales crímenes son descritos con escalofriantes detalles; también, sus obsesiones (ya sea acerca de la tecnología, el vestuario o los cantantes y grupos musicales de moda) son expuestas en forma muy prolija.



Bateman se siente vacío existencialmente y rechaza toda posibilidad de comprometerse sentimentalmente con las mujeres; las desprecia profundamente y sólo las contempla en clave sexual o como objeto de su psicopatía. Rechaza el amor, pero en cierto momento de vacío existencial, declara para si mismo: "sólo quiero que me quieran". A pesar de su desprecio por la vida y el dolor ajeno se abstiene de asesinar a las tres únicas personas que le profesan un amor verdadero: su amante Courtney, su colega homosexual Luis Carruters y su secretaria Jean; esta última, llega a descolocarlo con su bondad e inocencia frente al mal que él representa.
Al término de la novela se revela que la mayor parte de los crímenes del protagonista son producto de su imaginación, aunque se deja abierta la posibilidad de que algunos sí los habría cometido realmente (un taxista lo reconoce como asesino de uno de sus colegas, en base a un retrato que circula en el centro de la ciudad). También, en una especie de epifanía final, acepta el amor sincero de Jean, aunque se sienta incapaz de devólverselo y con el temor de envolverla en su psicopatía.
La novela no sólo describe las andanzas de Bateman, si no que es el vehículo de una fuerte crítica social al modo de vida de los yuppies de finales de los 80, resaltando sus peores aspectos: el cultivo de la apariencia a cualquier costo, el exitismo económico y materialista como aspiración suprema, las relaciones humanas superficiales (es habitual la confusión de nombres entre los personajes), el sexismo y el narcisismo que inducen al menosprecio hacia las mujeres, un clasismo exacerbado que conlleva el rechazo visceral hacia los mendigos, los afroamericanos y los artistas, el consumo habitual de diferentes drogas, entre las que destaca la cocaína.


CAPTURAS











General
Complete name                            : E:AMERICAN PSYCHO DVDRIP LATINO.avi
Format                                   : AVI
Format/Info                              : Audio Video Interleave
File size                                : 1.59 GiB
Duration                                 : 1h 42mn
Overall bit rate                         : 2 235 Kbps
Movie name                               : American Psycho. Ripeada por juanw200
Writing application                      : VirtualDubMod 1.5.10.2 (build 2540/release)
Writing library                          : Boilsoft AVI tool build 1/release

Video
ID                                       : 0
Format                                   : MPEG-4 Visual
Format profile                           : [email protected]
Format settings, BVOP                    : No
Format settings, QPel                    : No
Format settings, GMC                     : No warppoints
Format settings, Matrix                  : Default (H.263)
Codec ID                                 : XVID
Codec ID/Hint                            : XviD
Duration                                 : 1h 42mn
Bit rate                                 : 2 033 Kbps
Width                                    : 720 pixels
Height                                   : 304 pixels
Display aspect ratio                     : 2.35:1
Frame rate                               : 23.976 fps
Color space                              : YUV
Chroma subsampling                       : 4:2:0
Bit depth                                : 8 bits
Scan type                                : Progressive
Compression mode                         : Lossy
Bits/(Pixel*Frame)                       : 0.387
Stream size                              : 1.45 GiB (91%)
Writing library                          : Lavc52.108.0

Audio
ID                                       : 1
Format                                   : AC-3
Format/Info                              : Audio Coding 3
Mode extension                           : CM (complete main)
Format settings, Endianness              : Big
Codec ID                                 : 2000
Duration                                 : 1h 42mn
Bit rate mode                            : Constant
Bit rate                                 : 192 Kbps
Channel(s)                               : 2 channels
Channel positions                        : Front: L R
Sampling rate                            : 48.0 KHz
Bit depth                                : 16 bits
Compression mode                         : Lossy
Delay relative to video                  : 1s 100ms
Stream size                              : 140 MiB (9%)
Alignment                                : Split accross interleaves
Interleave, duration                     : 42 ms (1.00 video frame)
Interleave, preload duration             : 500 ms



DESCARGA POR PUTLOCKER
 




Bueno eso es todo hasta la proxima
american psycho dvdrip latino xvid Christian Bale
0 Puntos Score: 0/10
Visitas: 3600 Favoritos: 4
8 Comentarios american psycho dvdrip latino xvid Christian Bale
mil gracias por tremendo clasico
en latino seguro??
Se Agradece el aporte...
@rodrigolf @leosjc77 de nada saludos
@raulhapp si amigo esta completamente en audio latino
Muchas gracias hombre me mate buscando esta peli perdon por no poder dejar puntos soy nuevo por aca
gracias , siempre la quise ver no por que me agreden los psicopatas :S si no que todos en la facultad hablaban de esta pelicula y pues me dio curiosidad
Muchas gracias....  
Para dejar un comentario Registrate! o.. eres ya usuario? Accede!