New girl temporada 1 capitulos 17 a 24 tvriplatino

Saludos aqui les dejo los ultimos capitulos de la temporada 1 son del 17 al 24, pueden  buscar los demas capitulos en mi perfil,  pronto estare subiendo la temporada 2, ya tengo hasta el capitulo 4 solo falta de subirlos, espero continuar con los capitulos que vayan saliedo 


New Girl es una serie de televisión estadounidense que se estrenó en Fox el 20 de septiembre de 2011.2 Está protagonizada por Zooey Deschanel, Jake Johnson, Max Greenfield, Lamorne Morris, y Hannah Simone. El 28 de septiembre de 2011, después de dos episodios al aire, Fox ordenó un adicional de 11 episodios del primer orden de 13 episodios, con lo que la primera temporada quedo con 24 episodios

capturas todos los videos tienen las mismas caracteristicas 











General
Complete name      NEW GIRL T1 1X13 LAT.avi
Format                                   : AVI
Format/Info                              : Audio Video Interleave
File size                                : 172 MiB
Duration                                 : 21mn 25s
Overall bit rate                         : 1 121 Kbps
Writing application                      : VirtualDubMod 1.5.4.1 (build 2178/release)
Writing library                          : Boilsoft AVI tool build 1/release

Video
ID                                       : 0
Format                                   : MPEG-4 Visual
Format profile                           : Advanced [email protected]
Format settings, BVOP                    : 1
Format settings, QPel                    : No
Format settings, GMC                     : No warppoints
Format settings, Matrix                  : Custom
Codec ID                                 : XVID
Codec ID/Hint                            : XviD
Duration                                 : 21mn 25s
Bit rate                                 : 983 Kbps
Width                                    : 640 pixels
Height                                   : 480 pixels
Display aspect ratio                     : 4:3
Frame rate                               : 23.976 fps
Color space                              : YUV
Chroma subsampling                       : 4:2:0
Bit depth                                : 8 bits
Scan type                                : Progressive
Compression mode                         : Lossy
Bits/(Pixel*Frame)                       : 0.134
Stream size                              : 151 MiB (88%)
Writing library                          : XviD 64

Audio
ID                                       : 1
Format                                   : MPEG Audio
Format version                           : Version 1
Format profile                           : Layer 3
Mode                                     : Joint stereo
Mode extension                           : MS Stereo
Codec ID                                 : 55
Codec ID/Hint                            : MP3
Duration                                 : 21mn 25s
Bit rate mode                            : Constant
Bit rate                                 : 128 Kbps
Channel(s)                               : 2 channels
Sampling rate                            : 48.0 KHz
Compression mode                         : Lossy
Stream size                              : 19.6 MiB (11%)
Alignment                                : Aligned on interleaves
Interleave, duration                     : 42 ms (1.00 video frame)
Interleave, preload duration             : 504 ms
Writing library                          : LAME3.98.2

A algunos capitulos le dan la extencion .avi
PUTLOCKER



BILLIONUPLOADS


New girl temporada 1 capitulos 17 a 24 tvriplatino
35 Puntos Score: 8.8/10
Visitas: 2883 Favoritos: 1
Ver los usuarios que votaron...
18 Comentarios New girl temporada 1 capitulos 17 a 24 tvriplatino
execelente amigo.......
genial amigo , oye porfa no dejes de subir la segunda temporada      
Cita kirito_kun: Mostrar
idem
oye amigo veo q estn grabadas de azteca 7, podris subir otras series de este canal? como wilferd o the american horror  history grax
brother eres el mejor, gracias por exelente trabajo... La 2 temporada la vas a subir?
Muchas Gracias MEn  
gracias por el aporte  
tenes la serie "lie to me" en latino
@vackochav amigos ahorita estoy batallando, necesito dvds regrabables para poder seguir  grabando, antes los compraba en radioshack pero ya no les an traido y no encuentro en otras tiendas,ahorita tengo 2 discos son en los que estoy grabando pero ya tienen mas de 7 meses que los compre y no se cuanto mas me duren, ya los he regrabado muchas veces y ya estan un poco rayados, espero que me duren un poco mas para seguir grabando los capitulos de new girl que vayan saliendo,@waldomuniz @180afull  
oye y por que no usas dvd normales ? yo te recomiendo la marca sony o picaso son muy buenos
no dejes de grabarlos la serie esta muy buena

gracias
Hola amigo, tengo un problema del capitulo 21 al 24 me salen con extension .a no con .rar  a si estan arriba
@IsraelOrta amigo la extencion correcta para esos capitulos es    .avi    
Gracias amigo listo ya quedaron
hola, disculpa la molestia,   amo esta y creo que los links est?
* amo esta serie
@dahyan amigo los links estan vivos pasate por este otro post
 http://www.identi.li/index.php?topic=252612
Gracias amigo, sos el mejor, en este post no me dejaba descargar pero en el otro anduvo de 10  
Hoy ya te dej?
Para dejar un comentario Registrate! o.. eres ya usuario? Accede!