Oops.. Este post tiene los enlaces eliminados!

Identi revisa las denuncias de los usuarios en busca de enlaces eliminados que no dejan descargar los archivos, este mensaje te informa que este post que estas viendo tiene los enlaces eliminados.

Usa el Buscador

Por favor, te recomendamos que uses el buscador para encontrar más alternativas.

Wasabi un policia frances en japon latino jeanreno

  • Categoría: Reciclaje
  • Publicado hace más de 3 años
 Saludos aqui les dejo esta exelente pelicula, me hizo recordar lo mucho que extraño las peliculas en formato 4:3 fullscreen o sea a pantalla completa, y a los que no les gustan las peliculas en full screen, tal vez el audio les pueda servir para un  BR-RIP dual




 Wasabi es una película coproducida en el año 2001 entre Francia y Japón, estrenada ese mismo año en Francia y Bélgica, mientras que en otros países lo fue posteriormente (en España, México y Argentina no lo fue hasta 2003). En España se estrenó con el título de Wasabi. El trato sucio de la mafia; en Hispanoamérica simplemente como Wasabi, aunque también se le ha llamado "Un policía francés en Japón".
Se trata de una comedia de acción con elementos dramáticos, dirigida por Gérard Krawczyk con la participación de actores franceses y japoneses, entre los que cabe destacar a Jean Reno, Michel Muller, Ry?ko Hirosue o Carole Bouquet. A pesar de tratarse de una película de acción a la francesa, contiene claras influencias del cine estadounidense
Al estar ambientada principalmente en Japón, el rodaje se efectuó principalmente en dicho país, incluyendo numerosas escenas en lugares reconocibles de Tokio


La película se inicia con la aparición de Hubert Fiorentini (Jean Reno), quien resulta ser un policía cuarentón que utiliza métodos poco ortodoxos y que no tiene buenas relaciones con las mujeres, al haber quedado marcado por un antiguo amor, veinte años atrás, con una mujer japonesa, Miko (Yuki Sakai), que desapareció bruscamente de su vida.
Tras un grave altercado durante una detención de un sospechoso, su jefe toma la decisión de obligarle a tomarse unas vacaciones, parte para librarse de él, parte para hacerle un favor. Aburrido, dos días después recibe la llamada de un abogado de Tokio, que le comunica que Miko, la mujer de su vida, ha muerto, nombrándole en su testamento, por lo que debe acudir sin demora al Japón.
Hubert regresa pues a Tokyo, veinte años después. Nada más bajar del avión, ya tiene un primer altercado en el aeropuerto de Narita en Tokyo,2 acabando detenido, hasta la llegada al lugar de su amigo Maurice, alias Momo (Michel Muller). Conocemos entonces que Hubert, Momo y Miko habían sido no sólo amigos, sino compañeros de trabajo de la Embajada francesa en Japón, ya que los tres habían trabajado para la Dirección General de la Seguridad Exterior, los servicios secretos franceses, trabajo que Momo sigue desempeñando.
Personado en el despacho del abogado japonés que le había citado, Hubert descubre que la herencia de Miko es muy peculiar: una llave, una fotografía, una cuenta en el banco cuyo saldo es una incógnita... y una hija veinteañera cuya existencia él desconocía y que tampoco sabe que Hubert es su padre.
Yumi (Ry?ko Hirosue), la hija de Miko y Hubert, manifiesta un profundo odio hacia la figura de su desconocido padre, con lo que Hubert decide no confesarle por el momento que él mismo es su padre, diciéndole que es un antiguo amigo de su madre. Hubert decide por el momento acudir a la cremación del cadáver de Miko, encontrándose con que en la nariz de su antiguo amor hay unos cristales extraños, que hace analizar.
Hubert se ve atrapado poco a poco en una extraña madeja de situaciones: padre de una adolescente veinteañera con una pasión compulsiva por la compra de ropa de moda, a la que sigue sin decir que es su padre, descubre que en la cuenta de Miko hay 200 millones de dólares estadounidenses, a la vez que llega a la conclusión de que Miko no había fallecido de muerte natural, sino que había sido asesinada.
Siguiendo con sus investigaciones, descubre que, aparentemente, su antiguo amor trabajaba para la mafia japonesa, los Yakuza, pero que, en realidad, Miko había continuado en los servicios secretos, habiéndose infiltrado en los yakuza, siendo asesinada tras ser descubierta. Entonces, la mafia japonesa secuestra a Yumi...   


Capturas










General
Complete name                        Wasabi jean reno.avi
Format                                   : AVI
Format/Info                              : Audio Video Interleave
File size                                : 1.64 GiB
Duration                                 : 1h 34mn
Overall bit rate                         : 2 493 Kbps
Writing application                      : VirtualDubMod 1.5.10.2 (build 2540/release)
Writing library                          : VirtualDubMod build 2540/release

Video
ID                                       : 0
Format                                   : MPEG-4 Visual
Format profile                           : [email protected]
Format settings, BVOP                    : No
Format settings, QPel                    : No
Format settings, GMC                     : No warppoints
Format settings, Matrix                  : Default (H.263)
Codec ID                                 : XVID
Codec ID/Hint                            : XviD
Duration                                 : 1h 34mn
Bit rate                                 : 2 292 Kbps
Width                                    : 640 pixels
Height                                   : 480 pixels
Display aspect ratio                     : 4:3
Frame rate                               : 24.000 fps
Color space                              : YUV
Chroma subsampling                       : 4:2:0
Bit depth                                : 8 bits
Scan type                                : Progressive
Compression mode                         : Lossy
Bits/(Pixel*Frame)                       : 0.311
Stream size                              : 1.51 GiB (92%)
Writing library                          : Lavc52.108.0

Audio
ID                                       : 1
Format                                   : AC-3
Format/Info                              : Audio Coding 3
Mode extension                           : CM (complete main)
Format settings, Endianness              : Big
Codec ID                                 : 2000
Duration                                 : 1h 34mn
Bit rate mode                            : Constant
Bit rate                                 : 192 Kbps
Channel(s)                               : 2 channels
Channel positions                        : Front: L R
Sampling rate                            : 48.0 KHz
Bit depth                                : 16 bits
Compression mode                         : Lossy
Stream size                              : 129 MiB (8%)
Alignment                                : Split accross interleaves
Interleave, duration                     : 42 ms (1.00 video frame)
Interleave, preload duration             : 500 ms



descascarga putlocker




Bueno eso es todo hasta la proxima
Wasabi un policia frances en japon latino jeanreno
42 Puntos Score: 8.4/10
Visitas: 5264 Favoritos: 5
Ver los usuarios que votaron...
11 Comentarios Wasabi un policia frances en japon latino jeanreno
gracias muy buena peli
Gracias, esta la tengo en 720p, solo tenia subtitulos pero ahora podre sacarle el audio latino a esta y ponerselo a la que tengo :p  
Gracias por la peli, Jean Reno gran actor, descargandoooo  
muy buen aporte genial  
te puedo pedir "en latino" Nikita de Luc Besson a?
Hola
Ya descargu?
@jazzfer que error te marca, dale a la opcion comprobar en winrar esto se hace asi, le das doble click a archivo part1.rar, y le das a comprobar, y te fijas si alguna parte te da error y la vuelves a descargar, a lo mejor una parte se descargo mal
Esta en latino? gracias
fueron removidos los links
Para dejar un comentario Registrate! o.. eres ya usuario? Accede!