New girl temporada 1 capitulos 13 a 16 tvriplatino


Saludos aqui les dejo los capitulos 13 al 16 de una vez para no hacer tantos post


New Girl es una serie de televisión estadounidense que se estrenó en Fox el 20 de septiembre de 2011.2 Está protagonizada por Zooey Deschanel, Jake Johnson, Max Greenfield, Lamorne Morris, y Hannah Simone. El 28 de septiembre de 2011, después de dos episodios al aire, Fox ordenó un adicional de 11 episodios del primer orden de 13 episodios, con lo que la primera temporada quedo con 24 episodios

capturas todos los videos tienen las mismas caracteristicas









General
Complete name      NEW GIRL T1 1X13 LAT.avi
Format                                   : AVI
Format/Info                              : Audio Video Interleave
File size                                : 172 MiB
Duration                                 : 21mn 25s
Overall bit rate                         : 1 121 Kbps
Writing application                      : VirtualDubMod 1.5.4.1 (build 2178/release)
Writing library                          : Boilsoft AVI tool build 1/release

Video
ID                                       : 0
Format                                   : MPEG-4 Visual
Format profile                           : Advanced [email protected]
Format settings, BVOP                    : 1
Format settings, QPel                    : No
Format settings, GMC                     : No warppoints
Format settings, Matrix                  : Custom
Codec ID                                 : XVID
Codec ID/Hint                            : XviD
Duration                                 : 21mn 25s
Bit rate                                 : 983 Kbps
Width                                    : 640 pixels
Height                                   : 480 pixels
Display aspect ratio                     : 4:3
Frame rate                               : 23.976 fps
Color space                              : YUV
Chroma subsampling                       : 4:2:0
Bit depth                                : 8 bits
Scan type                                : Progressive
Compression mode                         : Lossy
Bits/(Pixel*Frame)                       : 0.134
Stream size                              : 151 MiB (88%)
Writing library                          : XviD 64

Audio
ID                                       : 1
Format                                   : MPEG Audio
Format version                           : Version 1
Format profile                           : Layer 3
Mode                                     : Joint stereo
Mode extension                           : MS Stereo
Codec ID                                 : 55
Codec ID/Hint                            : MP3
Duration                                 : 21mn 25s
Bit rate mode                            : Constant
Bit rate                                 : 128 Kbps
Channel(s)                               : 2 channels
Sampling rate                            : 48.0 KHz
Compression mode                         : Lossy
Stream size                              : 19.6 MiB (11%)
Alignment                                : Aligned on interleaves
Interleave, duration                     : 42 ms (1.00 video frame)
Interleave, preload duration             : 504 ms
Writing library                          : LAME3.98.2


putlocker


billionuploads




ya tengo hasta el capitulo 24 solo falta subirlos,  y a partir del  2 de septiembre estrenaran capitulos nuevos, yo los seguire subiendo de esta forma mientras pueda, si hay alguien que le interesen solo los audios y si son de mexico, pueden ver la serie por el canal azteca 7 sale al rededor de las 12 de la madrugada hora de mexico,
New girl temporada 1 capitulos 13 a 16 tvriplatino
10 Puntos Score: 10/10
Visitas: 3679 Favoritos: 3
Ver los usuarios que votaron...
13 Comentarios New girl temporada 1 capitulos 13 a 16 tvriplatino
estan bien chidos carnal
Muchas Gracias
@mmarti2122 @HD-CIX @waldomuniz de nada gracias por pasar saludos
Gracias Maestro   Voy a esperar a que subas los restantes capitulos.
 
excelente bro ty
Gracias SIge asiii...!  
Buen aporte marinero, pero los links estan rotos, se le agradeceria mucho que los resubas, gracias
Por Favor Amigo podrias resubir esto Enlaces lo q tenia se me perdieron de mi dico duro Please Please Please
@Ramoosh94 @HD-CIX pasen por estos post todos los links estan activos, o pasen por udenti pongan en el buscador new girl ahi tengo 2 post con todos los links
New girl temporada 2 caps 19 al 25 tvrip latino

http://www.identi.li/index.php?topic=266932


New girl temporada 2 caps 11 al 18 tvrip latino
http://www.identi.li/index.php?topic=257525

New girl temporada 2 capitulos 6 al 10 tvrip latin
http://www.identi.li/index.php?topic=252612



New girl temporada 2 capitulos 3 al 5 tvriplatino
http://www.identi.li/index.php?topic=249227



http://www.identi.li/index.php?topic=247074
New girl temporada 2, capitulos 1 y 2 tvrip latino
men pero es de la primera temporada.
@HD-CIX @HD-CIX cual temporada ocupas para decirte cuales son los links, la dos temporadas estan activas
Para dejar un comentario Registrate! o.. eres ya usuario? Accede!