Oops.. Este post tiene los enlaces eliminados!

Identi revisa las denuncias de los usuarios en busca de enlaces eliminados que no dejan descargar los archivos, este mensaje te informa que este post que estas viendo tiene los enlaces eliminados.

Usa el Buscador

Por favor, te recomendamos que uses el buscador para encontrar más alternativas.

Sobrenatural/ Temporadas 1-2-3-4- (avi) (MEGA)

  • Categoría: Reciclaje
  • Publicado hace más de 3 años
Sobrenatural/Supernatural [MPEG-4/AVI]

 


Título original
    Supernatural (TV Series)
Año
    2005
Duración
    40 min.
País
    [Estados Unidos]  Estados Unidos
Director
    Eric Kripke (Creator), Philip Sgriccia, Robert Singer, Kim Manners, Charles Beeson, Mike Rohl, Steve Boyum, John Showalter, J. Miller Tobin, James L. Conway, Guy Norman Bee, Peter Ellis, David Nutter
Guión
    Eric Kripke, Sera Gamble, Ben Edlund, Jeremy Carver, Andrew Dabb, Daniel Loflin, John Shiban, Raelle Tucker, Cathryn Humphris, Julie Siege, Adam Glass, Nancy Weiner, Eric C. Charmelo, Brett Matthews, Nicole Snyder, Richard Hatem, Terri Hughes, Ron Milbauer, Matt Witten, Robert Singer, Jenny Klein, David Reed
Música
    Jay Gruska, Christopher Lennertz
Fotografía
    Serge Ladouceur
Reparto
    Jared Padalecki, Jensen Ackles, Misha Collins, Jim Beaver, Mark Sheppard, Jeffrey Dean Morgan, Genevieve Padalecki, Cindy Sampson, Mark Pellegrino, Samantha Ferris, Osric Chau, Mitch Pileggi, Ty Olsson, Alona Tal, Kurt Fuller, Sebastian Roché, Kevin McNally
Productora
    Emitida por la cadena WB / CW; Kripke Enterprises / Warner Bros. Television / Wonderland Sound and Vision / Supernatural Films
Género
    Serie de TV. Ciencia ficción. Fantástico. Intriga. Thriller. Terror | Sobrenatural 
Web Oficial
 http://www.cwtv.com/shows/supernatural


Serie de TV (2005-Actualidad). Un misterioso mensaje telefónico de su padre, que hace mucho tiempo que ha abandonado el hogar familiar, lleva a los hermanos Dean y Sam Winchester hasta California. Aunque no encuentran a su padre, descubren su diario, en el que intentan encontrar pistas que les ayuden a destruir al espíritu maligno que, según su progenitor, es el responsable de la muerte en extrañas circunstancias de la madre de los hermanos. (FILMAFFINITY)




SeriesSobreNaturalSobreNatural Temporada 1SobreNatural 1x01.avi
   General
      Complete name : I:SeriesSobreNaturalSobreNatural Temporada 1SobreNatural 1x01.avi
      Format : AVI
      Format/Info : Audio Video Interleave
      File size : 503 MiB
      Duration : 44mn 28s
      Overall bit rate : 1 580 Kbps
      Writing application : VirtualDubMod 1.5.10.2 (build 2542/release)
      Writing library : VirtualDubMod build 2542/release
   Video #0
      ID : 0
      Format : MPEG-4 Visual
      Format profile : Advanced [email protected]
      Format settings, BVOP : 1
      Format settings, QPel : No
      Format settings, GMC : No warppoints
      Format settings, Matrix : Custom
      Codec ID : XVID
      Codec ID/Hint : XviD
      Duration : 44mn 28s
      Bit rate : 1 378 Kbps
      Width : 704 pixels
      Height : 396 pixels
      Display aspect ratio : 16:9
      Frame rate : 25.000 fps
      Color space : YUV
      Chroma subsampling : 4:2:0
      Bit depth : 8 bits
      Scan type : Progressive
      Compression mode : Lossy
      Bits/(Pixel*Frame) : 0.198
      Stream size : 438 MiB (87%)
      Writing library : XviD 1.2.0.dev47 (UTC 2006-11-01)
   Audio #1
      ID : 1
      Format : AC-3
      Format/Info : Audio Coding 3
      Format profile : Dolby Digital
      Mode extension : CM (complete main)
      Format settings, Endianness : Big
      Codec ID : 2000
      Duration : 44mn 28s
      Bit rate mode : Constant
      Bit rate : 192 Kbps
      Channel(s) : 2 channels
      Channel positions : Front: L R
      Sampling rate : 48.0 KHz
      Bit depth : 16 bits
      Compression mode : Lossy
      Stream size : 61.1 MiB (12%)
      Alignment : Split accross interleaves
      Interleave, duration : 40 ms (1.00 video frame)
      Interleave, preload duration : 500 ms

 
Sobrenatural/ Temporadas 1-2-3-4- (avi) (MEGA)
0 Puntos Score: 0/10
Visitas: 3069 Favoritos: 1
5 Comentarios Sobrenatural/ Temporadas 1-2-3-4- (avi) (MEGA)
mean ablado mucho de esta serie gracias por darme la oportunidad de tenerla subiras las temporadas faltantes?
audio latino o ingles
@SODAKUN12

Esta en chino y en Japones
q idioma esta espa?
Este post esta cerrado y no se permiten comentarios.
Para dejar un comentario Registrate! o.. eres ya usuario? Accede!