Sr. Avila 1er y 2do Ep (MG) TVrip HBO

Sr. Avila


SR. ÁVILA narra la historia de un hombre de clase media, vendedor de seguros de vida, esposo y padre, que oculta una doble vida como asesino a sueldo dentro de una organización criminal. La vida de Ávila no es, en apariencia, muy distinta a la de cualquier otro ciudadano de una gran ciudad; sin embargo, levantar esta fachada de normalidad no ha sido tarea fácil, y mas difícil aún será mantenerla. Ávila escalará posiciones dentro de la organización y se convertirá en el Sr. Del negocio. Con el nuevo cargo vendrán problemas y responsabilidades y la entramada farsa se irá desmoronando; el pasado regresará para cobrar cuentas pendientes y su vida, la de su esposa María y su hijo Emiliano se transformarán en una pesadilla de la cual será difícil escapar. Escrita por Walter y Marcelo Slavich, y protagonizada Tony Dalton. SR. ÁVILA es una producción original de HBO Latinoamérica y cuenta con 13 episodios.

Pagina oficial:
Fuente

Trailer:




Primer y Segundo Episodio de esta Gran Serie, si es de su agrado y veo que tiene aceptacion ire subiendo los demas episodios:



Especificaciones:


Format                         : AVI
Format/Info                    : Audio Video Interleave
File size                      : 653 MiB
Duration                       : 1h 39mn
Overall bit rate               : 914 Kbps

Video
ID                             : 0
Format                         : MPEG-4 Visual
Format profile                 : [email protected]
Format settings, BVOP          : No
Format settings, QPel          : No
Format settings, GMC           : No warppoints
Format settings, Matrix        : Default (H.263)
Codec ID                       : XVID
Codec ID/Hint                  : XviD
Duration                       : 1h 39mn
Bit rate                       : 767 Kbps
Width                          : 624 pixels
Height                         : 352 pixels
Display aspect ratio           : 16:9
Frame rate                     : 30.000 fps
Color space                    : YUV
Chroma subsampling             : 4:2:0
Bit depth                      : 8 bits
Scan type                      : Progressive
Compression mode               : Lossy
Bits/(Pixel*Frame)             : 0.116
Stream size                    : 548 MiB (84%)
Writing library                : XviD 1.2.1 (UTC 2008-12-04)

Audio
ID                             : 1
Format                         : MPEG Audio
Format version                 : Version 1
Format profile                 : Layer 3
Mode                           : Joint stereo
Mode extension                 : MS Stereo
Codec ID                       : 55
Codec ID/Hint                  : MP3
Duration                       : 1h 39mn
Bit rate mode                  : Constant
Bit rate                       : 128 Kbps
Channel(s)                     : 2 channels
Sampling rate                  : 48.0 KHz
Compression mode               : Lossy
Stream size                    : 91.4 MiB (14%)
Alignment                      : Aligned on interleaves
Interleave, duration           : 24 ms (0.72 video frame)
Writing library                : LAME3.98.2




Descargar





Agradecer no cuesta nada!!

Ojala puedan darme puntos!!!
Sr. Avila 1er y 2do Ep (MG) TVrip HBO
10 Puntos Score: 10/10
Visitas: 3141 Favoritos: 3
Ver los usuarios que votaron...
6 Comentarios Sr. Avila 1er y 2do Ep (MG) TVrip HBO
GRACIAS AMIGO POR ESTA SERIE OJALA PUEDASA SUBIRLA COMPLETA TE DEJO PUNTOS+10
Gracias amigo! intentare subirla toda!!  
Buenisima serie!!!
Esta serie me es imposible de encontrar en otros sitios web    
 sigue agregando mas y gracias por el aporte      
Claro ya esta subida, solo me falta el ultimo episodio, seguire subiendola aunque sea en partes!  
Para dejar un comentario Registrate! o.. eres ya usuario? Accede!