La fuerza del cariño 1983 dvdrip latino drama


Saludos amigos de identi,anteriormente ya habia posteado esta pelicula, pero era un tvrip del canal tcm,hace una semana me consegui el dvdfull pero solo trae ingles y subtitulos en español,asi que me di a la tarea de extraer el audio del tvrip y agregarlo a este dvdrip para que quedara en latino,pero como el audio latino le faltaba un pequeño pedazo tube que insertarle unos 30 segundos en ingles,incluyo un archivo srt con los subtitulos de esa parte que es minima, recuerden que si le cambian el nombre al video debera llamarse igual el archivo srt para que lo lea,tengo pensado subir el dvd full, pero eso sera despues. bueno ya fue mucho bla,bla,bla, ahora a lo que te truje chencha

La fuerza del cariño es una película dramática estadounidense basada en la novela del mismo título de Larry McMurtry. Ganó cinco Oscar, a la mejor película, al mejor director, al mejor actor de reparto (Jack Nicholson), a la mejor actriz principal (Shirley MacLaine), y al mejor guion adaptado, y obtuvo seis otras nominaciones, al mejor actor de reparto (John Lithgow), a la mejor actriz principal (Debra Winger), a la mejor dirección artística, a la mejor música, al mejor montaje, y al mejor sonido.




Sinopsis

La Fuerza del Cariño cautivó tanto al público como a la crítica gracias a la convincente y profunda historia de dos personajes deliciosos, una madre y su hija, interpretados magistralmente por Shirley MacLaine y Debra Winger. El directo James L. Brooks retrata de forma prodigiosa una relación que abarca tres décadas y que combina situaciones muy divertidas con otras profundamente dramáticas. Jack Nocholson brinda una actuación repleta de comicidad como el vecino de MacLaine, un astronauta retirado borrachín y ligón.

CAPTURAS














DETALLES DEL RIPEO

General
LA FUERZA DEL CARIÑO DVDRIP LATINO.avi
Format                         : AVI
Format/Info                    : Audio Video Interleave
File size                      : 1.44 GiB
Duration                       : 2h 11mn
Overall bit rate               : 1 567 Kbps
Writing application            : VirtualDubMod 1.5.10.2 (build 2540/release)
Writing library                : Boilsoft AVI tool build 1/release

Video
ID                             : 0
Format                         : MPEG-4 Visual
Format profile                 : Advanced [email protected]
Format settings, BVOP          : Yes
Format settings, QPel          : No
Format settings, GMC           : No warppoints
Format settings, Matrix        : Custom
Codec ID                       : XVID
Codec ID/Hint                  : XviD
Duration                       : 2h 11mn
Bit rate                       : 1 429 Kbps
Width                          : 720 pixels
Height                         : 416 pixels
Display aspect ratio           : 1.731
Frame rate                     : 23.976 fps
Color space                    : YUV
Chroma subsampling             : 4:2:0
Bit depth                      : 8 bits
Scan type                      : Progressive
Compression mode               : Lossy
Bits/(Pixel*Frame)             : 0.199
Stream size                    : 1.32 GiB (91%)
Writing library                : XviD 64

Audio
ID                             : 1
Format                         : MPEG Audio
Format version                 : Version 1
Format profile                 : Layer 3
Mode                           : Joint stereo
Mode extension                 : MS Stereo
Codec ID                       : 55
Codec ID/Hint                  : MP3
Duration                       : 2h 11mn
Bit rate mode                  : Constant
Bit rate                       : 128 Kbps
Channel(s)                     : 2 channels
Sampling rate                  : 48.0 KHz
Compression mode               : Lossy
Stream size                    : 121 MiB (8%)
Alignment                      : Aligned on interleaves
Interleave, duration           : 42 ms (1.00 video frame)
Interleave, preload duration   : 504 ms


PUTLOCKER


BILLIONUPLOADS


Bueno eso es todo proximamete subire la segunda parte de esta pelicula. la fuerza del cariño 2 la vida continua,que lleva el nombre en ingles de The evening star, tambien en latino

La fuerza del cariño 1983 dvdrip latino drama
10 Puntos Score: 10/10
Visitas: 3656 Favoritos: 6
Ver los usuarios que votaron...
19 Comentarios La fuerza del cariño 1983 dvdrip latino drama
Estupendo, gracias por compartir  
Saludos
Muy bueno... yo tengo la pel?
Muy completa la informaci?
QUE BELLA ERA DEBRA WINGER!!!!
GRACIAS AMIGO POR LA PELI!!!!
excelente aporte esperando la segunda parte
@sdcaza_B_ @zaurio @alejandro_cr @rickrock @zemkore @davenger @lefarocu gracias a todos y que bueno que les fue util, despues subo la segunda parte,acabo de a?
@tiresias17 de nada amigo,la segunda parte ya la tengo montada pero no he podido a?
OK hazlo con paciencia, solo te pido por favor que me avises apenas lo subas. Saludos  
@tiresias17 al parecer ya quedo el audio latino, y la pelicula ya la subi, yo casi siempre  posteo en la madrugada hora de mexico, ma?
podras resubir los links?
te paasaste amigo mi madre te lo agradece muchas gracias  
podrias volver a subirla porfavor
Lamento que ya los links no est?
Para dejar un comentario Registrate! o.. eres ya usuario? Accede!