Kalifornia 1994 dvdrip latino brat pit juliette


Brian Kessler es un periodista que prepara un libro sobre los asesinos en serie más famosos de los Estados Unidos. Para ello decide emprender un viaje junto a su novia Karrie, para conocer los lugares donde los criminales vivieron y mataron. Para compensar los altos costes del viaje, ponen un anuncio solicitando compañeros con los que compartir los gastos de gasolina.
 
Titulo Original: Kalifornia
Titulo Hispano: Kalifornia
Idioma: Español Latino
País: USA
Año: 1994
Género: Thriller | Road Movie. Asesinos en serie
Tamaño: 1.50 Gb
Calidad Imagen: DVDRip
Formato: .avi
  

capturas






General
Complete name                  K4LIFOC.avi
Format                         : AVI
Format/Info                    : Audio Video Interleave
File size                      : 1.50 GiB
Duration                       : 1h 58mn
Overall bit rate               : 1 817 Kbps
Writing application            : VirtualDubMod 1.5.10.2 (build 2540/release)
Writing library                : VirtualDubMod build 2540/release

Video
ID                             : 0
Format                         : MPEG-4 Visual
Format profile                 : Advanced [email protected]
Format settings, BVOP          : Yes
Format settings, QPel          : No
Format settings, GMC           : No warppoints
Format settings, Matrix        : Default (MPEG)
Codec ID                       : XVID
Codec ID/Hint                  : XviD
Duration                       : 1h 58mn
Bit rate                       : 1 360 Kbps
Width                          : 720 pixels
Height                         : 304 pixels
Display aspect ratio           : 2.35:1
Frame rate                     : 23.976 fps
Color space                    : YUV
Chroma subsampling             : 4:2:0
Bit depth                      : 8 bits
Scan type                      : Progressive
Compression mode               : Lossy
Bits/(Pixel*Frame)             : 0.259
Stream size                    : 1.12 GiB (75%)
Writing library                : XviD 1.1.2 (UTC 2006-11-01)

Audio
ID                             : 1
Format                         : AC-3
Format/Info                    : Audio Coding 3
Mode extension                 : CM (complete main)
Format settings, Endianness    : Big
Codec ID                       : 2000
Duration                       : 1h 58mn
Bit rate mode                  : Constant
Bit rate                       : 448 Kbps
Channel(s)                     : 6 channels
Channel positions              : Front: L C R, Side: L R, LFE
Sampling rate                  : 48.0 KHz
Bit depth                      : 16 bits
Compression mode               : Lossy
Delay relative to video        : 100ms
Stream size                    : 379 MiB (25%)
Alignment                      : Split accross interleaves
Interleave, duration           : 42 ms (1.00 video frame)
Interleave, preload duration   : 500 ms



BILLIOUPLOADS


PUTLOCKER

Kalifornia 1994 dvdrip latino brat pit juliette
5 Puntos Score: 5/10
Visitas: 1501 Favoritos: 4
Ver los usuarios que votaron...
2 Comentarios Kalifornia 1994 dvdrip latino brat pit juliette
Muy buena peicula, la recomiendo!
LINK MALO .! POR FAVOR REPARALO . DE ANTE MANO GRACIAS .!
Para dejar un comentario Registrate! o.. eres ya usuario? Accede!