El duende maldito 5 leprechaun dvdrip latino

 El duende maldito en el vecindario

Saludos aqui les comparto esta pelicula para la coleccion en audio latino



El regreso del diabolico y malhumorado duende llega, cuando un muy torpe grupo de musica rap le invoca para utilizar su magia y que se conviertan en super estrellas. Cuando Leprechaun aparece un rastro de muerte y destruccion llega consigo.

Capturas






Format                                   : AVI
Format/Info                              : Audio Video Interleave
File size                                : 746 MiB
Duration                                 : 1h 30mn
Overall bit rate                         : 1 152 Kbps
Writing application                      : VirtualDubMod 1.5.4.1 (build 2178/release)
Writing library                          : VirtualDubMod build 2178/release

Video
ID                                       : 0
Format                                   : MPEG-4 Visual
Format profile                           : Advanced [email protected]
Format settings, BVOP                    : 1
Format settings, QPel                    : No
Format settings, GMC                     : No warppoints
Format settings, Matrix                  : Custom
Codec ID                                 : XVID
Codec ID/Hint                            : XviD
Duration                                 : 1h 30mn
Bit rate                                 : 1 017 Kbps
Width                                    : 640 pixels
Height                                   : 480 pixels
Display aspect ratio                     : 4:3
Frame rate                               : 23.976 fps
Color space                              : YUV
Chroma subsampling                       : 4:2:0
Bit depth                                : 8 bits
Scan type                                : Progressive
Compression mode                         : Lossy
Bits/(Pixel*Frame)                       : 0.138
Stream size                              : 659 MiB (88%)
Writing library                          : XviD 64

Audio
ID                                       : 1
Format                                   : MPEG Audio
Format version                           : Version 1
Format profile                           : Layer 3
Mode                                     : Joint stereo
Mode extension                           : MS Stereo
Codec ID                                 : 55
Codec ID/Hint                            : MP3
Duration                                 : 1h 30mn
Bit rate mode                            : Constant
Bit rate                                 : 128 Kbps
Channel(s)                               : 2 channels
Sampling rate                            : 48.0 KHz
Compression mode                         : Lossy
Stream size                              : 82.9 MiB (11%)
Alignment                                : Aligned on interleaves
Interleave, duration                     : 83 ms (2.00 video frames)
Interleave, preload duration             : 504 ms
Writing library                          : LAME3.98r
Encoding settings                        : -m j -V 4 -q 2 -lowpass 17 -b 128
Language                                 : Espanol

PUTLOCKER


BILLIONUPLOADS



Deja tu comentario para seguir aportando a esta gran comunidad

hasta la proxima 

El duende maldito 5 leprechaun dvdrip latino
47 Puntos Score: 7.8/10
Visitas: 5101 Favoritos: 7
Ver los usuarios que votaron...
22 Comentarios El duende maldito 5 leprechaun dvdrip latino
bien jodido el cabron, excelente aporte... a luego descargo.! +5
excelente aporte amigo......se me acabaron los puntos pero ma?
En donde la conseguiste amigo?,muy buen aporte por cierto
y de casualidad no tienes las primeras y espa?
excelente aporte,  me gustaria el resto de las pelis tambien en latino
me haria falta la 4, si la tienes te agradeceria mucho, gracia spor el aporte!!
@shaka19022 de nada men saludos
@dj_cabo la uno y dos ya las subi en latino faltarian la 3 y 4 pero esas no las tengo

@terang89 me faltan la 3 y 4 esas no las he encontrado en latino
aqui estan tus +10  
@juanw200 exelente pero lastima en el servidor de la 1
@terang89 amigo ya la descargaste que tal esta
lA vERdad no la he visto completa hasta que las tenga todas me voy a poner a verlas, pero se escucha bien, y la verdad es que es la unica, no hay de otra  
No Sabia que eran 6, ya solo me falta la seis 6
@terang89 ya descargue la 3 el audio esta bien, voy a ver si encuentro el video en mejor calidad,de todas formas ya arme la pelicula numero 3 con audio latino e ingles mas subtitulos,quedo mas o menos,
gracias esta es la que canta el duende al final de la pelicula?
gracias me la llevo
hace mucho habia subido el audio latino de esta pelicula por internet lo habia extraido de un dvd
Gracias por la peli....
HOLA AMIGO MUCHAS GRACIAS POR EL APORTE PERO LOS LINKS ESTAN MUERTOS Y QUISIERA SABER SI TIENES LA 4 Y LA 6 PARA COMPLETAR LA COLECCION GRACIAS  
Para dejar un comentario Registrate! o.. eres ya usuario? Accede!