Oops.. Este post tiene los enlaces eliminados!

Identi revisa las denuncias de los usuarios en busca de enlaces eliminados que no dejan descargar los archivos, este mensaje te informa que este post que estas viendo tiene los enlaces eliminados.

Usa el Buscador

Por favor, te recomendamos que uses el buscador para encontrar más alternativas.

METEGOL

  • Categoría: Reciclaje
  • Publicado hace más de 3 años

METEGOL










Metegol” nos cuenta las aventuras de Amadeo, un chico tímido pero virtuoso, que deberá enfrentarse al más temible rival sobre una cancha de fútbol: el Crack. Para ello contará con la inestimable ayuda de unos jugadores de futbolín liderados por el Wing, su carismático extremo derecho. Amadeo y los jugadores se embarcarán en una gran aventura con el fútbol como marco de esta emocionante historia de amor, respeto, amistad y pasión. 
CALIDAD: camrip
Este es mi primer post perdon por los errores comenten o mp para ir mejorando gracias







Enlaces De Descarga
METEGOL
52 Puntos Score: 7.4/10
Visitas: 11882 Favoritos: 6
Ver los usuarios que votaron...
23 Comentarios METEGOL
pone imagenes
muchas gracias  
El Primer Post de identi sobre Metegol?
YA ERA HORA.
dieron de baja el link!!
Gracias por tu esfuerzo  
primer post .primer gol  
muchachos olvidense de ver esta peli en buena calidad.....obvio se agradece el aporte pero esta peli va a tardar meses en salir dvd final con el exito en los cines que tuvo esta peli facil sali a fin de a?
cada ves mas complicado ...para ke salga poner extencion rar descomprimir y borrar el .mpg ke esta despues del .avi
error de formato . se supone que esta en . avi no?
cuando bajen la peli hay que nombrar a METEGOL.RAR luego descomprimirla y saldra Format                                   : MPEG-PS
File size                                : 928 MiB
Duration                                 : 1h 31mn
Overall bit rate                         : 1 411 Kbps

Video
ID                                       : 224 (0xE0)
Format                                   : MPEG Video
Format version                           : Version 1
Format settings, BVOP                    : No
Format settings, Matrix                  : Default
Format settings, GOP                     : N=15
Duration                                 : 1h 31mn
Bit rate                                 : 1 150 Kbps
Width                                    : 352 pixels
Height                                   : 240 pixels
Display aspect ratio                     : 4:3
Frame rate                               : 29.970 fps
Standard                                 : NTSC
Color space                              : YUV
Bit depth                                : 8 bits
Scan type                                : Progressive
Compression mode                         : Lossy
Bits/(Pixel*Frame)                       : 0.454
Time code of first frame                 : 00:00:00:00
Time code source                         : Group of pictures header
Stream size                              : 762 MiB (82%)

Audio
ID                                       : 192 (0xC0)
Format                                   : MPEG Audio
Format version                           : Version 1
Format profile                           : Layer 2
Duration                                 : 1h 31mn
Bit rate mode                            : Constant
Bit rate                                 : 224 Kbps
Channel(s)                               : 2 channels
Sampling rate                            : 44.1 KHz
Compression mode                         : Lossy
Stream size                              : 147 MiB (16%)
PACIENCIA estoy resubiendo ya que lo dieron de baja
amigo lo puedes subir en otro servidor por favor
yo tambien te pido lo mismo..!! podes subirlo por otro servidor porfavor..!!
es con camara?  
La baje de este post abri 5 segundos la peor calidad jamas vista. no recomiendo este post, si alguno sabe donde bajarla avizar, desde ya muchas gracias y si subis porquerias por lo menos pone que es muy mala calidad. Gracias
Para dejar un comentario Registrate! o.. eres ya usuario? Accede!