El duende maldito 2 leprechaun latino e ingles+sub

Saludos aqui les dejo esta pelicula, nota, el audio latino lo encontre navegando por la web,no se escucha muy bien que digamos pero si se entienden los dialogos, es el unico audio que he encontrado hasta el momento,para que se den una idea de como se escucha es como si lo hubieran grabado del cine,de todas formas incluye ingles mas subtitulos srt, por si no les gusta



billionuploads


putlocker



General
DUENDE MALDITO 2 LEPRECHAUN.avi
Format                                   : AVI
Format/Info                              : Audio Video Interleave
File size                                : 800 MiB
Duration                                 : 1h 24mn
Overall bit rate                         : 1 316 Kbps
Writing application                      : VirtualDubMod 1.5.4.1 (build 2178/release)
Writing library                          : VirtualDubMod build 2178/release

Video
ID                                       : 0
Format                                   : MPEG-4 Visual
Format profile                           : Advanced [email protected]
Format settings, BVOP                    : 1
Format settings, QPel                    : No
Format settings, GMC                     : No warppoints
Format settings, Matrix                  : Custom
Codec ID                                 : XVID
Codec ID/Hint                            : XviD
Duration                                 : 1h 24mn
Bit rate                                 : 1 049 Kbps
Width                                    : 704 pixels
Height                                   : 400 pixels
Display aspect ratio                     : 16:9
Frame rate                               : 29.970 fps
Color space                              : YUV
Chroma subsampling                       : 4:2:0
Bit depth                                : 8 bits
Scan type                                : Progressive
Compression mode                         : Lossy
Bits/(Pixel*Frame)                       : 0.124
Stream size                              : 637 MiB (80%)
Writing library                          : XviD 64

Audio #1
ID                                       : 1
Format                                   : MPEG Audio
Format version                           : Version 1
Format profile                           : Layer 3
Mode                                     : Joint stereo
Codec ID                                 : 55
Codec ID/Hint                            : MP3
Duration                                 : 1h 24mn
Bit rate mode                            : Constant
Bit rate                                 : 128 Kbps
Channel(s)                               : 2 channels
Sampling rate                            : 48.0 KHz
Compression mode                         : Lossy
Stream size                              : 77.8 MiB (10%)
Alignment                                : Aligned on interleaves
Interleave, duration                     : 67 ms (2.00 video frames)
Interleave, preload duration             : 504 ms
Writing library                          : LAME3.98r
Encoding settings                        : -m j -V 4 -q 2 -lowpass 17 -b 128
Language                                 : Latin

Audio #2
ID                                       : 2
Format                                   : MPEG Audio
Format version                           : Version 1
Format profile                           : Layer 3
Mode                                     : Joint stereo
Mode extension                           : MS Stereo
Codec ID                                 : 55
Codec ID/Hint                            : MP3
Duration                                 : 1h 24mn
Bit rate mode                            : Constant
Bit rate                                 : 128 Kbps
Channel(s)                               : 2 channels
Sampling rate                            : 48.0 KHz
Compression mode                         : Lossy
Stream size                              : 77.8 MiB (10%)
Alignment                                : Aligned on interleaves
Interleave, duration                     : 67 ms (2.00 video frames)
Interleave, preload duration             : 504 ms
Writing library                          : LAME3.98r
Encoding settings                        : -m j -V 4 -q 2 -lowpass 17 -b 128
Language                                 : English
El duende maldito 2 leprechaun latino e ingles+sub
10 Puntos Score: 5/10
Visitas: 3575 Favoritos: 3
Ver los usuarios que votaron...
4 Comentarios El duende maldito 2 leprechaun latino e ingles+sub
Amigo excelente aporte esa pelicula me gustaba mucho cuando era ni?
buen aporte aunque el audio no es muy bueno , sigue asi amig espero subas las demas parters te dejo +5
subi la saga porfa  
Para dejar un comentario Registrate! o.. eres ya usuario? Accede!