Mi Villano Favorito 2010 Dvdrip Latino Putlocker



Cita: Mostrar


Titulo Original: Despicable Me
Titulo Latino: Mi Villano Favorito
Titulo Español: Gru: Mi Villano Favorito
Estudio: Universal Studios
País: USA
Año: 2010
Género: Animación, Comedia, Ciencia Ficción, Infantil
Idioma: Español Latino 


General
Complete name                    : C:UsersPunkhzDocumentsTorrentListasMi.Villano.Favorito.Dvdrip.Audio.Latino.avi
Format                           : AVI
Format/Info                      : Audio Video Interleave
File size                        : 702 MiB
Duration                         : 1h 34mn
Overall bit rate                 : 1 034 Kbps
Movie name                       : Mi.Villano.Favorito.2010.DVDRip.XviD.LATiNO
Director                         : Punkhz
Genre                            : Animación
Recorded date                    : 03-12-2010
Writing application              : VirtualDubMod 1.5.10.2 (build 2542/release)
Writing library                  : VirtualDubMod build 2542/release
Copyright                        : Punkhz

Video
Format                           : MPEG-4 Visual
Format profile                   : Streaming [email protected]
Format settings, BVOP            : Yes
Format settings, QPel            : No
Format settings, GMC             : No warppoints
Format settings, Matrix          : Default (H.263)
Codec ID                         : XVID
Codec ID/Hint                    : XviD
Duration                         : 1h 34mn
Bit rate                         : 865 Kbps
Width                            : 640 pixels
Height                           : 336 pixels
Display aspect ratio             : 1.905
Frame rate                       : 23.976 fps
Resolution                       : 24 bits
Colorimetry                      : 4:2:0
Scan type                        : Progressive
Bits/(Pixel*Frame)               : 0.168
Stream size                      : 587 MiB (84%)
Writing library                  : XviD 1.2.1 (UTC 2008-12-04)

Audio
Format                           : MPEG Audio
Format version                   : Version 1
Format profile                   : Layer 3
Codec ID                         : 55
Codec ID/Hint                    : MP3
Duration                         : 1h 34mn
Bit rate mode                    : Constant
Bit rate                         : 160 Kbps
Channel(s)                       : 2 channels
Sampling rate                    : 48.0 KHz
Resolution                       : 16 bits
Stream size                      : 109 MiB (15%)
Alignment                        : Aligned on interleaves
Interleave, duration             : 42 ms (1.00 video frame)
Interleave, preload duration     : 504 ms
Writing library                  : LAME3.98r
Encoding settings                : -m s -V 4 -q 2 -lowpass 17.5 -b 160









http://www.putlocker.com/file/CB786A746F5BCD59
http://www.putlocker.com/file/25AF701F2AC81122
http://www.putlocker.com/file/915FBC17D0D29C2A
http://www.putlocker.com/file/A918D62E8DC2AF6F
http://www.putlocker.com/file/173AD55D4A381493
http://www.putlocker.com/file/77519E38E7C24AC9
http://www.putlocker.com/file/2EB982B490B29DA6
Mi Villano Favorito 2010 Dvdrip Latino Putlocker
20 Puntos Score: 6.7/10
Visitas: 2956 Favoritos: 0
Ver los usuarios que votaron...
7 Comentarios Mi Villano Favorito 2010 Dvdrip Latino Putlocker
Buen aporte...Descargando +5  
corrig la categoria te equivcaste. mas 5 x el error
Cita JokerPeli: Mostrar
Corregido jokerloco
ai te va los +5 x correguirlo  
Excelente! +10 Descargando.
LINKS CAIDOS  @Starter
Para dejar un comentario Registrate! o.. eres ya usuario? Accede!