La era de hielo 4 167Mb Latino Dvdrip 1 Link PL

Hola Amigos que tal, les traigo esta pelicula infantil que esta muy buena. 
La he comprimido en 2 versiones, la primera de 167mb y la segunda en 248mb. Ovbiamente
la segunda version tiene mas calidad de imagen, ahi decidan ustedes cual descargar. Ambas versiones son
Dvdrip y estan en formato .avi.

Ice Age 4
La era de hielo 4: La formación de los continentes (2012) 


La persecución descabellada de Scrat de la bellota maldita, la que ha estado persiguiendo desde el principio de los tiempos, tiene consecuencias que van a cambiar el mundo ? un cataclismo continental que desencadena la mayor aventura de todas para Manny, Diego y Sid. En la estela de esta conmoción, Sid se rencuentra con su refunfuñona abuelita, y la manada tropieza con una colección de desaliñados piratas marineros decididos a impedir su regreso a casa.




General
Complete name                    : C:UsersPunkhzDocumentsFFOutputLa era de hielo 4 - 2012 - latino - DrogoPost.avi
Format                           : AVI
Format/Info                      : Audio Video Interleave
File size                        : 168 MiB
Duration                         : 2h 55mn
Overall bit rate                 : 134 Kbps
Writing application              : MEncoder SVN-r29214(20090422-gcc4.3.3)
Writing library                  : MPlayer

Video
Format                           : MPEG-4 Visual
Format profile                   : [email protected]
Format settings, BVOP            : No
Format settings, QPel            : No
Format settings, GMC             : No warppoints
Format settings, Matrix          : Default (H.263)
Codec ID                         : DIVX
Codec ID/Info                    : Project Mayo
Codec ID/Hint                    : DivX 4
Duration                         : 1h 27mn
Bit rate                         : 128 Kbps
Width                            : 320 pixels
Height                           : 240 pixels
Display aspect ratio             : 4/3
Frame rate                       : 18.000 fps
Resolution                       : 24 bits
Colorimetry                      : 4:2:0
Scan type                        : Progressive
Bits/(Pixel*Frame)               : 0.093
Stream size                      : 80.4 MiB (48%)
Writing library                  : Lavc52.22.3

Audio
Format                           : MPEG Audio
Format version                   : Version 2
Format profile                   : Layer 3
Codec ID                         : 55
Codec ID/Hint                    : MP3
Duration                         : 2h 55mn
Bit rate mode                    : Constant
Bit rate                         : 128 Kbps
Channel(s)                       : 2 channels
Sampling rate                    : 22.05 KHz
Resolution                       : 16 bits
Stream size                      : 80.3 MiB (48%)
Alignment                        : Aligned on interleaves
Interleave, duration             : 26 ms (0.47 video frame)
Interleave, preload duration     : 522 ms
Writing library                  : LAME3.98













http://www.putlocker.com/file/319C3FDF505F7F59






General
Complete name                    : C:UsersPunkhzDocumentsFFOutputLa era de hielo 4 - 2012 - latino - DrogoPost~1.avi
Format                           : AVI
Format/Info                      : Audio Video Interleave
File size                        : 248 MiB
Duration                         : 2h 55mn
Overall bit rate                 : 197 Kbps
Writing application              : MEncoder SVN-r29214(20090422-gcc4.3.3)
Writing library                  : MPlayer

Video
Format                           : MPEG-4 Visual
Format profile                   : [email protected]
Format settings, BVOP            : No
Format settings, QPel            : No
Format settings, GMC             : No warppoints
Format settings, Matrix          : Default (H.263)
Codec ID                         : DIVX
Codec ID/Info                    : Project Mayo
Codec ID/Hint                    : DivX 4
Duration                         : 1h 27mn
Bit rate                         : 256 Kbps
Width                            : 400 pixels
Height                           : 240 pixels
Display aspect ratio             : 1.667
Frame rate                       : 18.000 fps
Resolution                       : 24 bits
Colorimetry                      : 4:2:0
Scan type                        : Progressive
Bits/(Pixel*Frame)               : 0.148
Stream size                      : 160 MiB (65%)
Writing library                  : Lavc52.22.3

Audio
Format                           : MPEG Audio
Format version                   : Version 2
Format profile                   : Layer 3
Codec ID                         : 55
Codec ID/Hint                    : MP3
Duration                         : 2h 55mn
Bit rate mode                    : Constant
Bit rate                         : 128 Kbps
Channel(s)                       : 2 channels
Sampling rate                    : 22.05 KHz
Resolution                       : 16 bits
Stream size                      : 80.3 MiB (32%)
Alignment                        : Aligned on interleaves
Interleave, duration             : 26 ms (0.47 video frame)
Interleave, preload duration     : 522 ms
Writing library                  : LAME3.98













http://www.putlocker.com/file/1F89050C9114EA3A
La era de hielo 4 167Mb Latino Dvdrip 1 Link PL
15 Puntos Score: 7.5/10
Visitas: 2127 Favoritos: 1
Ver los usuarios que votaron...
5 Comentarios La era de hielo 4 167Mb Latino Dvdrip 1 Link PL
Cita lember10: Mostrar
De nada, Hermano.
Muy bueno. Muchas gracias.  
Para dejar un comentario Registrate! o.. eres ya usuario? Accede!