Snitch el mensajero 3gp Latino Celular 2013

Hola amigos como estan , en esta ocacion les traigo la pelicula Snitch: el mensajero en formato 3gp para su celular.
La pelicula esta ripeada del DVDR, Retail lo que garantiza una excelente calidad, pesa 137mb y esta en un link, descarguen y disfrutenla.




General
Complete name                    : C:UsersPunkhzDocumentsFFOutputEl.Mensajero.2013.DVDRip.XviD.Latino.SBT.3gp
Format                           : MPEG-4
Format profile                   : 3GPP Media Release 4
Codec ID                         : 3gp4
File size                        : 137 MiB
Duration                         : 1h 51mn
Overall bit rate                 : 171 Kbps
Encoded date                     : UTC 2013-08-03 17:56:58
Tagged date                      : UTC 2013-08-03 17:56:58

Video
ID                               : 1
Format                           : H.263
Codec ID                         : s263
Duration                         : 1h 51mn
Bit rate mode                    : Variable
Bit rate                         : 156 Kbps
Width                            : 176 pixels
Height                           : 144 pixels
Display aspect ratio             : 4/3
Frame rate mode                  : Constant
Frame rate                       : 15.000 fps
Bits/(Pixel*Frame)               : 0.410
Stream size                      : 125 MiB (91%)
Language                         : English
Encoded date                     : UTC 2013-08-03 17:56:58
Tagged date                      : UTC 2013-08-03 17:56:58

Audio
ID                               : 2
Format                           : AMR
Format/Info                      : Adaptive Multi-Rate
Format profile                   : Narrow band
Codec ID                         : samr
Duration                         : 1h 51mn
Bit rate mode                    : Constant
Bit rate                         : 12.8 Kbps
Channel(s)                       : 2 channels
Sampling rate                    : 8 000 Hz
Resolution                       : 16 bits
Stream size                      : 10.2 MiB (7%)
Language                         : Español Latino
Encoded date                     : UTC 2013-08-03 17:56:58
Tagged date                      : UTC 2013-08-03 17:56:58




Capturas reales de la Pelicula





Descarga
http://www.putlocker.com/file/F5C53229973FB19E
Snitch el mensajero 3gp Latino Celular 2013
0 Puntos Score: 0/10
Visitas: 1316 Favoritos: 0
0 Comentarios Snitch el mensajero 3gp Latino Celular 2013
Este post no tiene comentarios. Sea el primero!
Para dejar un comentario Registrate! o.. eres ya usuario? Accede!