New girl temporada 1 capitulo 6 tvrip latino zooey


 New Girl es una serie de televisión estadounidense que se estrenó en Fox el 20 de septiembre de 2011.2 Está protagonizada por Zooey Deschanel, Jake Johnson, Max Greenfield, Lamorne Morris, y Hannah Simone. El 28 de septiembre de 2011, después de dos episodios al aire, Fox ordenó un adicional de 11 episodios del primer orden de 13 episodios, con lo que la primera temporada quedo con 24 episodios


La serie comienza con Jessica "Jess" Day (interpretada por Zooey Deschanel), una mujer peculiar, burbujeante de casi treinta años que da clases en una escuela primaria local de Los Ángeles. Jess comienza a buscar un nuevo lugar para vivir después de encontrar a su novio engañándola. Al ver un anuncio de un nuevo compañero de cuarto en Craigslist, se muda con tres jóvenes: Nick, Schmidt y Coach. Muy poco después de su traslado, Coach se va, y es sustituido por Winston, otro joven que había vivido en el apartamento con Nick y Schmidt.

capturas 


General
Complete name                           NEW GIRL T1 1X06 LAT.avi
Format                                   : AVI
Format/Info                              : Audio Video Interleave
File size                                : 177 MiB
Duration                                 : 21mn 8s
Overall bit rate                         : 1 170 Kbps
Writing application                      : VirtualDubMod 1.5.4.1 (build 2178/release)
Writing library                          : Boilsoft AVI tool build 1/release

Video
ID                                       : 0
Format                                   : MPEG-4 Visual
Format profile                           : Advanced [email protected]
Format settings, BVOP                    : 1
Format settings, QPel                    : No
Format settings, GMC                     : No warppoints
Format settings, Matrix                  : Custom
Codec ID                                 : XVID
Codec ID/Hint                            : XviD
Duration                                 : 21mn 8s
Bit rate                                 : 1 033 Kbps
Width                                    : 640 pixels
Height                                   : 480 pixels
Display aspect ratio                     : 4:3
Frame rate                               : 23.976 fps
Color space                              : YUV
Chroma subsampling                       : 4:2:0
Bit depth                                : 8 bits
Scan type                                : Progressive
Compression mode                         : Lossy
Bits/(Pixel*Frame)                       : 0.140
Stream size                              : 156 MiB (88%)
Writing library                          : XviD 64

Audio
ID                                       : 1
Format                                   : MPEG Audio
Format version                           : Version 1
Format profile                           : Layer 3
Mode                                     : Joint stereo
Mode extension                           : MS Stereo
Codec ID                                 : 55
Codec ID/Hint                            : MP3
Duration                                 : 21mn 8s
Bit rate mode                            : Constant
Bit rate                                 : 128 Kbps
Channel(s)                               : 2 channels
Sampling rate                            : 48.0 KHz
Compression mode                         : Lossy
Stream size                              : 19.4 MiB (11%)
Alignment                                : Aligned on interleaves
Interleave, duration                     : 42 ms (1.00 video frame)
Interleave, preload duration             : 504 ms
Writing library                          : LAME3.98.2Á]d²;+?nÒ#

billionuploads



putlocker
New girl temporada 1 capitulo 6 tvrip latino zooey
5 Puntos Score: 5/10
Visitas: 1415 Favoritos: 0
Ver los usuarios que votaron...
6 Comentarios New girl temporada 1 capitulo 6 tvrip latino zooey
deswcargandoooooooo

gracias
gracias por el aporte.. subiras la serie completa?
 
maestro!!!    de verdad q sta rebuena sta serie , muchisimas gracias  
Prodirias subirlo de nuevo
@narusaki01 amigo pasate por udenti
temporada 1 http://www.udenti.li/index.php?topic=23068
temporada 2 http://www.udenti.li/index.php?topic=23174
acabo de verificar los links y estan activos actualiza jd o mi pony para que puedas descargar


@juanw200
Gracias *u* espero y sigas subiendo series  

me interesa una llamada my is earl muchas gracias por esta serie  
Para dejar un comentario Registrate! o.. eres ya usuario? Accede!