Oops.. Este post tiene los enlaces eliminados!

Identi revisa las denuncias de los usuarios en busca de enlaces eliminados que no dejan descargar los archivos, este mensaje te informa que este post que estas viendo tiene los enlaces eliminados.

Usa el Buscador

Por favor, te recomendamos que uses el buscador para encontrar más alternativas.

Alienigenas Ancestrales (Temporada 4) [10/10][PL]

  • Categoría: Reciclaje
  • Publicado hace más de 3 años
Alienigenas Ancestrales (Temporada 4)-[10/10]-[DVB-S|720p]-[Castellano]












Alienígenas ancestrales (Ancient Aliens en inglés) es una serie de televisión estadounidense que se estrenó el 20 de abril de 2010, en el canal History. Producido por Prometheus Entertainment, el programa presenta las hipótesis de los antiguos astronautas y propone que los textos históricos, la arqueología y leyendas contienen pruebas de que en el pasado, el ser humano tuvo contacto con los extraterrestres.


- El especial que dio origen a la serie salió al aire el 8 de marzo de 2009 -


La serie en general examina 75 millones años de la "evidencia alienígena" más increíble que ha llegado a la Tierra, desde la edad de los dinosaurios, al antiguo Egipto, hacia el cielo sobre el desierto estadounidense en la actualidad, con capítulos como "Alienígenas en el viejo oeste"


El productor ejecutivo es Kevin Burns, quien también dirigió y escribió el episodio piloto. Giorgio A. Tsoukalos sirve como consultor de producción y apareció en la pantalla del piloto. Erich von Däniken apareció en el episodio piloto, y ufólogo C. Scott Littleton sirvió como un consultor experto para el show hasta su muerte en 2010.


En toda la serie colaboran personajes como: George Noory, Barry Downing, Jonathan Young y David Hatcher Childress entre otros.


El programa tenia 1.676M de espectadores a finales de octubre de 2010, 2.034M a mediados de diciembre (para el episodio "Estructuras inexplicable") y en finales de enero de 2011, tenia 1.309M de espectadores.




Format : AVI
Format/Info : Audio Video Interleave
File size : 982 MiB
Duration : 44mn 3s
Overall bit rate : 3 117 Kbps
Writing application : VirtualDubMod 1.5.10.3 | www.virtualdub-fr.org || (build 2550/release)
Writing library : VirtualDubMod build 2550/release

Video
ID : 0
Format : MPEG-4 Visual
Format profile : Advanced [email protected]
Format settings, BVOP : 2
Format settings, QPel : No
Format settings, GMC : No warppoints
Format settings, Matrix : Default (H.263)
Muxing mode : Packed bitstream
Codec ID : XVID
Codec ID/Hint : XviD
Duration : 44mn 3s
Bit rate : 2 916 Kbps
Width : 1 280 pixels
Height : 720 pixels
Display aspect ratio : 16:9
Frame rate : 25.000 fps
Color space : YUV
Chroma subsampling : 4:2:0
Bit depth : 8 bits
Scan type : Progressive
Compression mode : Lossy
Bits/(Pixel*Frame) : 0.127
Stream size : 919 MiB (94%)
Writing library : XviD 64

Audio
ID : 1
Format : MPEG Audio
Format version : Version 1
Format profile : Layer 3
Mode : Joint stereo
Mode extension : MS Stereo
Codec ID : 55
Codec ID/Hint : MP3
Duration : 44mn 2s
Bit rate mode : Constant
Bit rate : 192 Kbps
Channel(s) : 2 channels
Sampling rate : 48.0 KHz
Compression mode : Lossy
Stream size : 60.5 MiB (6%)
Alignment : Aligned on interleaves
Interleave, duration : 40 ms (1.00 video frame)
Interleave, preload duration : 504 ms

TEMAS DE LA TEMPORADA 4



ALIENIGENAS ANCESTRALES
4x01 
¤ LA CONSPIRACIÓN MAYA ¤



ALIENIGENAS ANCESTRALES
4x02 
¤ LAS PROFECÍAS APOCALÍPTICAS ¤




ALIENIGENAS ANCESTRALES
4x03 
¤ LOS GRISES ¤


ALIENIGENAS ANCESTRALES
4x04 
¤ ALIENÍGENAS Y MEGA-DESASTRES ¤



ALIENIGENAS ANCESTRALES
4x05 
¤ LA CONEXIÓN DE LA NASA ¤



ALIENIGENAS ANCESTRALES
4x06 
¤ EL MISTERIO DEL PUMA PUNKU ¤



ALIENIGENAS ANCESTRALES
4x07 
¤ EL BIGFOOT ¤


ALIENIGENAS ANCESTRALES
4x09 
¤ LOS VIAJEROS DEL TIEMPO ¤


ALIENIGENAS ANCESTRALES
4x10 
¤ ALIENÍGENAS Y DINOSAURIOS ¤









Enlaces De Descarga



lito150
Alienigenas Ancestrales (Temporada 4) [10/10][PL]
10 Puntos Score: 5/10
Visitas: 1372 Favoritos: 10
Ver los usuarios que votaron...
7 Comentarios Alienigenas Ancestrales (Temporada 4) [10/10][PL]
joder tio esta super mega chevere el aporte y en hd definitivamente se agradece el que lo conpartas--saludos
CUATRO TEMPORADAS!!! de Giorgio desconfiando de todo, madre mia!  
@hakenzo buen post y no le faltaron aliens!  
bueno hermano pero falta un  cap segun los enlaces el 7 no esta
muy buena historia le faltaron aliens pero exelente historia !  
falta el capitulo 7
Para dejar un comentario Registrate! o.. eres ya usuario? Accede!