New girl temporada 1 capitulo 1 tvrip latino zooey


New Girl es una serie de televisión estadounidense que se estrenó en Fox el 20 de septiembre de 2011.2 Está protagonizada por Zooey Deschanel, Jake Johnson, Max Greenfield, Lamorne Morris, y Hannah Simone. El 28 de septiembre de 2011, después de dos episodios al aire, Fox ordenó un adicional de 11 episodios del primer orden de 13 episodios, con lo que la primera temporada quedo con 24 episodios


La serie comienza con Jessica "Jess" Day (interpretada por Zooey Deschanel), una mujer peculiar, burbujeante de casi treinta años que da clases en una escuela primaria local de Los Ángeles. Jess comienza a buscar un nuevo lugar para vivir después de encontrar a su novio engañándola. Al ver un anuncio de un nuevo compañero de cuarto en Craigslist, se muda con tres jóvenes: Nick, Schmidt y Coach. Muy poco después de su traslado, Coach se va, y es sustituido por Winston, otro joven que había vivido en el apartamento con Nick y Schmidt.


capturas






tamaño
204 MB (214.562.064 bytes)
detalles del video
General
Complete name                            GIRL T1 1X01 LAT.avi
Format                                   : AVI
Format/Info                              : Audio Video Interleave
File size                                : 205 MiB
Duration                                 : 21mn 11s
Overall bit rate                         : 1 350 Kbps
Writing application                      : VirtualDubMod 1.5.4.1 (build 2178/release)
Writing library                          : Boilsoft AVI tool build 1/release

Video
ID                                       : 0
Format                                   : MPEG-4 Visual
Format profile                           : Advanced [email protected]
Format settings, BVOP                    : 1
Format settings, QPel                    : No
Format settings, GMC                     : No warppoints
Format settings, Matrix                  : Custom
Codec ID                                 : XVID
Codec ID/Hint                            : XviD
Duration                                 : 21mn 11s
Bit rate                                 : 1 213 Kbps
Width                                    : 640 pixels
Height                                   : 480 pixels
Display aspect ratio                     : 4:3
Frame rate                               : 23.976 fps
Color space                              : YUV
Chroma subsampling                       : 4:2:0
Bit depth                                : 8 bits
Scan type                                : Progressive
Compression mode                         : Lossy
Bits/(Pixel*Frame)                       : 0.165
Stream size                              : 184 MiB (90%)
Writing library                          : XviD 64

Audio
ID                                       : 1
Format                                   : MPEG Audio
Format version                           : Version 1
Format profile                           : Layer 3
Mode                                     : Joint stereo
Mode extension                           : MS Stereo
Codec ID                                 : 55
Codec ID/Hint                            : MP3
Duration                                 : 21mn 11s
Bit rate mode                            : Constant
Bit rate                                 : 128 Kbps
Channel(s)                               : 2 channels
Sampling rate                            : 48.0 KHz
Compression mode                         : Lossy
Delay relative to video                  : 48ms
Stream size                              : 19.4 MiB (9%)
Alignment                                : Aligned on interleaves
Interleave, duration                     : 42 ms (1.00 video frame)
Interleave, preload duration             : 504 ms
Writing library                          : LAME3.98r
Encoding settings                        : -m j -V 4 -q 2 -lowpass 17 -b 128


PUTLOCKER




BILLIONUPLOADS



Resubido
New girl temporada 1 capitulo 1 tvrip latino zooey
25 Puntos Score: 8.3/10
Visitas: 3168 Favoritos: 1
Ver los usuarios que votaron...
17 Comentarios New girl temporada 1 capitulo 1 tvrip latino zooey
tienes mas episodios?
exelente serie ya voy en la tercera temporada
uuu excelente aporte muy buena serie y en esp latino mucho mejor  si no te molesta usare el audio para realizar un montaje con video de mejor calidad claro si no tienes inconveniente
latino?? no he escuchado a ver que tal las voces en latino...pero interesante y como dijeron arriba fuera bueno q lo sincronizes con un video de mejor calidad claroo si puedes
@gulber apenas empezo a salir el lunes, y voy grabando los capitulos como van saliendo, ahorita ya tengo hasta el capitulo 3
@xmadex no te preocupes si puedes montar el audio a otro video, adelante puedes hacelo
@Glee17 no se si se pueda,ya que en los capitulos estan los comerciales, y ay que cortar esas partes,si hay en identi un experto en eso de montar audios pues que lo haga, por que yo no tengo mucha paciencia y para mi la calidad asi como esta me parece bien,
muy Bueno sige asi!!!!!  
a ver que onda con la serie, siempre me dicen que esta buena   es una buena oportunidad para ver el principio  
Brother gracias por el aporte, estaba buscandola hace mucho tiempo, deveritas que gracias vas a subir toda la temporada?
men puedes subir el capitulo 1 nuevamente??' porque los links est?
@edguita checalos bien si estan activos
@ChinoM1 amigo todos los links estan activos, solo falta este capitulo a la noche lo resubo,de los capitulos 2 al 24 todos estan en linea
si ya me di cuenta use los link de jdownloader, bueno sta bien gracias lo espero con ancias
@edguita @ChinoM1 resubido el capitulo 1,ya esta toda la temporada 1 completa
gracias muy bien post XD
Gracias por subir esta serie, yo tenia audio de la temporada 1 completa, pero los borre por accidente, voya subirlos a youtube y alli se queden online por toda la vida en latino, no te molestara ?
Para dejar un comentario Registrate! o.. eres ya usuario? Accede!