Pecker (1998) dvdrip sub español Edward Furlong

Saludos aqui les dejo esta pelicula hace tiempo que la buscaba, y hoy la encontre, aclaro los links no son mios los encontre en la web, yo solo los comparto con ustedes creditos para el que subio la pelicula, yo la acabo de descargar sin problemas, de todas formas tratare de hacer un respaldo en otro server ya que mega a veces anda mal
Género: Comedias
Director(es): John Waters
Reparto: Edward Furlong, Christina Ricci, Mary Kay Place, Martha Plimpton, Lili Taylor, Bess Armstrong, Brendan Sexton III, Mink Stole, Patricia Hearst
Año del estreno: 1998
Sinopsis:
Pecker (Furlong) es un joven de 18 años aficionado a la fotografía en cuyo trabajo se fija una marchante de arte de Nueva York. Una exposición lo lanzará a la fama, pero también le creará no pocos problemas con sus familiares y amigos. 




Pecker.avi
Format                                   : AVI
Format/Info                              : Audio Video Interleave
File size                                : 700 MiB
Duration                                 : 1h 26mn
Overall bit rate mode                    : Variable
Overall bit rate                         : 1 134 Kbps
Writing application                      : VirtualDubMod 1.5.4.1 (build 2178/release)
Writing library                          : VirtualDubMod build 2178/release

Video
ID                                       : 0
Format                                   : MPEG-4 Visual
Format profile                           : Advanced [email protected]
Format settings, BVOP                    : 1
Format settings, QPel                    : No
Format settings, GMC                     : No warppoints
Format settings, Matrix                  : Custom
Codec ID                                 : XVID
Codec ID/Hint                            : XviD
Duration                                 : 1h 26mn
Bit rate                                 : 1 010 Kbps
Width                                    : 624 pixels
Height                                   : 352 pixels
Display aspect ratio                     : 16:9
Frame rate                               : 23.976 fps
Color space                              : YUV
Chroma subsampling                       : 4:2:0
Bit depth                                : 8 bits
Scan type                                : Progressive
Compression mode                         : Lossy
Bits/(Pixel*Frame)                       : 0.192
Stream size                              : 624 MiB (89%)
Writing library                          : XviD 1.2.0.dev47 (UTC 2006-11-01)

Audio
ID                                       : 1
Format                                   : MPEG Audio
Format version                           : Version 1
Format profile                           : Layer 3
Mode                                     : Joint stereo
Mode extension                           : MS Stereo
Codec ID                                 : 55
Codec ID/Hint                            : MP3
Duration                                 : 1h 26mn
Bit rate mode                            : Variable
Bit rate                                 : 111 Kbps
Nominal bit rate                         : 128 Kbps
Channel(s)                               : 2 channels
Sampling rate                            : 48.0 KHz
Compression mode                         : Lossy
Stream size                              : 68.8 MiB (10%)
Alignment                                : Aligned on interleaves
Interleave, duration                     : 24 ms (0.58 video frame)
Interleave, preload duration             : 165 ms
Writing library                          : LAME3.97 
Encoding settings                        : -m j -V 4 -q 2 -lowpass 17 --abr 128
Language                                 : English
Subtitulos adentro del rar

contraseña    klausmox



Pecker (1998) dvdrip sub español Edward Furlong
0 Puntos Score: 0/10
Visitas: 1590 Favoritos: 0
1 Comentarios Pecker (1998) dvdrip sub español Edward Furlong
Para dejar un comentario Registrate! o.. eres ya usuario? Accede!