El duende maldito 1 leprechaun dvdrip latino



Saludos aqui les dejo esta pelicula para recordar buenos tiempos


Dan O’Grady vuelve de Irlanda con una bolsa de oro y le explica a su mujer que se la ha robado a un duende. Ella no se lo cree, pero al abrir una de las maletas, sale de ella el duende y la tira por las escaleras. El duende es capaz de imitar las voces de otras personas, pero O’Grady tiene un trebol de cuatro hojas con el cual puede dominarlo y lo encierra en una caja en el sótano de la casa. Al cabo del tiempo otras personas sin querer desatan de su carcel al maldito duende ansioso de venganza y de recuperar su deseado oro... 

capturas

EL DUENDE MALDITO  LEPRECHAUN  1.avi

Format                         : AVI
Format/Info                    : Audio Video Interleave
File size                      : 1.42 GiB
Duration                       : 1h 31mn
Overall bit rate               : 2 222 Kbps
Writing application            : VirtualDubMod 1.5.10.2 (build 2540/release)
Writing library                : VirtualDubMod build 2540/release

Video
ID                             : 0
Format                         : MPEG-4 Visual
Format profile                 : Advanced [email protected]
Format settings, BVOP          : Yes
Format settings, QPel          : No
Format settings, GMC           : No warppoints
Format settings, Matrix        : Custom
Codec ID                       : XVID
Codec ID/Hint                  : XviD
Duration                       : 1h 31mn
Bit rate                       : 2 084 Kbps
Width                          : 592 pixels
Height                         : 448 pixels
Display aspect ratio           : 4:3
Frame rate                     : 23.976 fps
Color space                    : YUV
Chroma subsampling             : 4:2:0
Bit depth                      : 8 bits
Scan type                      : Progressive
Compression mode               : Lossy
Bits/(Pixel*Frame)             : 0.328
Stream size                    : 1.33 GiB (94%)
Writing library                : XviD 1.2.1 (UTC 2008-12-04)

Audio
ID                             : 1
Format                         : MPEG Audio
Format version                 : Version 1
Format profile                 : Layer 3
Codec ID                       : 55
Codec ID/Hint                  : MP3
Duration                       : 1h 31mn
Bit rate mode                  : Constant
Bit rate                       : 128 Kbps
Channel(s)                     : 2 channels
Sampling rate                  : 44.1 KHz
Compression mode               : Lossy
Delay relative to video        : 526ms
Stream size                    : 83.7 MiB (6%)
Alignment                      : Split accross interleaves
Interleave, duration           : 42 ms (1.00 video frame)
Interleave, preload duration   : 500 ms
idioma                              Español latino

billionuploads
El duende maldito 1 leprechaun dvdrip latino
57 Puntos Score: 8.1/10
Visitas: 8544 Favoritos: 7
Ver los usuarios que votaron...
23 Comentarios El duende maldito 1 leprechaun dvdrip latino
Que buenos tiempos los de jennifer aniston en esa epoca  
@juanw200 no tendras las demas pelis
@RON4LD si esta bien bonita
@bedeviar tengo la 2 tambien en latino, y la de el duende en el vecindario tambien en latino,despues la subo
Si la grabo a un dvd con esa resolucion tan peque?
@lamperouge depende de que televisor tengas, si es de los viejitos pantalla 4:3 se vera toda la pantalla, pero si es de los nuevos que son de pantalla 16:9 tal vez se vean las franjas negras a los lados, pero algunos televisores de los nuevos tiene la opcion de llenar la pantalla si tu quieres, pero eso depende del televisor que tengas,
De hecho es un televisor que trae la opcion de modificar la pantalla 4:3  a 16:9  o visceversa la bajare haber que pasa! por cierto las chicas de tu icono en que programa salen jaja...  
@lamperouge el programa se llama las noches del futbol, pero de futbol no tiene nada solo puro fap fap fap  
Jaja puro fap. Lo unico buenoo de ese programa son las chikas   . y res?
hallazgo... no la encontraba en latino
EXELENTE +10 esperando que subas las demas PARTES de la saga
@lamperouge @Jadensumer @xilensis @paul1525 de nada que bueno que les gusto saludos  
exceente amo estab buscando este clasico en latino, pero  tendras por favor toda la saga en latino, por ke recuerdo que vi solo la 1 y la 2 por la tele, seria genial!!!
gracias por compartir!!!!!!
tengo la numero 2 en audio latino, pero no se escucha muy bien que digamos, de todas formas la voy a subir dual,latino e ingles con subtitulos,y tambien tengo la de el duende en el vecindario en latino,en unos dias voy a compartir las dos,tengo que convertirlas a xvid @davenger
wow un grande chabon, sos un gennioooo  
Muchas Gracias !!!  
subilo en MEGA porfa !!
@bryant1150 descargatelo todavia sirven los links,me tardaria 15 horas en subirla de nuevo mi internet es muy lento, descarga con idm descargas a full desde bu
si, gracias ya lo estoy descargando. En formato MKV pesa menos y tiene mejor definicion @juanw200
hola amigo podrias volver a subirla gracias links despues del 9 muertos
Links muertos....
mmm pescargando el primero y bien, ojala que los restantes no esten caidos: no deben usar jdownloader porque no funciona con BU
bajada se ve perfecto y en latino gracias.
Para dejar un comentario Registrate! o.. eres ya usuario? Accede!