Una noche con sabrina love pelicula argentina +18

Saludos amigos de identi, aqui les dejo esta pelicula argentina, esta muy buena hace mucho tiempo que la vi en pago por evento,y hoy se las vengo a compartir,me la encontre en un server de esos que no sirven para nada y la subi a otros host,recomiendo descargar de los dos server para que duren mas los links

Título Una noche con Sabrina Love
Ficha técnica
Dirección Alejandro Agresti
Guion Alejandro Agresti
Protagonistas Tomás Fonzi
Cecilia Roth


Argentina

Año 2000
Género Comedia, Drama
Duración 100 minutos
Clasificación Mayores de 13 años
Idioma(s) Español

Una noche con Sabrina Love es una película argentina del 2000. Dirigida por Alejandro Agresti, protagonizada por Cecilia Roth y Tomas Fonzi.
Sinopsis

Daniel Montero (Tomás Fonzi) tiene diecisiete años y un rito nocturno: mirar el programa de la porno star del momento. Por eso, cuando gana el sorteo para pasar una noche con Sabrina Love (Cecilia Roth), siente que ha tocado el cielo con las manos. Sabrina lo espera en el estudio de televisión de Buenos Aires. Daniel inicia la travesía desde Curuguazú, el pueblecito de provincia en el que vive con su abuela desde que sus padres murieron, rodeado de un tedio exasperante, un desagradable trabajo en el frigorífico del pueblo y las periódicas inundaciones que le aislan del resto del mundo. Como esos héroes que descubren el mundo y se cubren a sí mismos a lo largo de un camino azaroso y accidentado, Daniel encuentra una galería de personajes que lo ayudarán a crecer a fuerza de consejos sabios o engañosos: Carmelo, el poeta noctámbulo que habita los bares del centro de la ciudad; Enrique, el hermano de Daniel, que ya no es el mismo y que no sabe de la muerte de sus padres; Sofía una joven que lo seduce el sábado por la noche; y, por supuesto, la enigmática Sabrina Love, junto a su séquito de productores y colegas de la industria de cine porno. Gracias a ellos conoce la ciudad, el sexo y el amor del modo más inesperado.



Una noche con Sabrina Love.avi


Format                         : AVI
Format/Info                    : Audio Video Interleave
File size                      : 700 MiB
Duration                       : 1h 36mn
Overall bit rate mode          : Variable
Overall bit rate               : 1 015 Kbps
Writing application            : VirtualDubMod 1.5.1.1a (build 1639/release)
Writing library                : VirtualDubMod build 1639/release

Video
ID                             : 0
Format                         : MPEG-4 Visual
Format settings, BVOP          : Yes
Format settings, QPel          : No
Format settings, GMC           : No warppoints
Format settings, Matrix        : Default (H.263)
Codec ID                       : DX50
Codec ID/Hint                  : DivX 5
Duration                       : 1h 36mn
Bit rate                       : 871 Kbps
Width                          : 512 pixels
Height                         : 272 pixels
Display aspect ratio           : 1.882
Frame rate                     : 25.000 fps
Color space                    : YUV
Chroma subsampling             : 4:2:0
Bit depth                      : 8 bits
Scan type                      : Progressive
Compression mode               : Lossy
Bits/(Pixel*Frame)             : 0.250
Stream size                    : 601 MiB (86%)
Writing library                : DivX 5.0.5 (UTC 2003-04-24)

Audio
ID                             : 1
Format                         : MPEG Audio
Format version                 : Version 1
Format profile                 : Layer 3
Mode                           : Joint stereo
Mode extension                 : MS Stereo
Codec ID                       : 55
Codec ID/Hint                  : MP3
Duration                       : 1h 36mn
Bit rate mode                  : Variable
Bit rate                       : 131 Kbps
Channel(s)                     : 2 channels
Sampling rate                  : 48.0 KHz
Compression mode               : Lossy
Stream size                    : 90.5 MiB (13%)
Alignment                      : Aligned on interleaves
Interleave, duration           : 24 ms (0.60 video frame)
Interleave, preload duration   : 402 ms


billionuploads



putlocker



contraseña del rar    juan w200



Una noche con sabrina love pelicula argentina +18
18 Puntos Score: 6/10
Visitas: 6144 Favoritos: 9
Ver los usuarios que votaron...
11 Comentarios Una noche con sabrina love pelicula argentina +18
Gracias bro por compartir. Bajando.
soy seguidor del Cine Argentino, gracias ...
gracias mae por la peli
@begin @shaka33 @Dismember @benja003 @tzen_cr que la disfruten gracias por comentar saludos,
saludos
descargare la pelicula para verla en el trabajo
gracias

bye
graciiiasss, bajandooo !!!!!
gracias bajando, siempre la quise ver  
muchas gracias, links activos
Para dejar un comentario Registrate! o.. eres ya usuario? Accede!