Oops.. Este post tiene los enlaces eliminados!

Identi revisa las denuncias de los usuarios en busca de enlaces eliminados que no dejan descargar los archivos, este mensaje te informa que este post que estas viendo tiene los enlaces eliminados.

Usa el Buscador

Por favor, te recomendamos que uses el buscador para encontrar más alternativas.

Dead Like Me la pelicula tan muertos como yo latin

  • Categoría: Reciclaje
  • Publicado hace más de 3 años
Saludos aqui les dejo la pelicula de tan muertos como yo, en español latino para completar la coleccion, las temporadas de la serie las pueden buscar en mi perfil.




Tan muertos como yo: La película (Dead Like Me: Life After Death) es una película de 2009 que salio para su venta directa en vídeo dirigida por Stephen Herek. La película está basada en la serie de televisión de 2003 Tan muertos como yo creada por Bryan Fuller.
 
Reparto 
Personaje      Actor original         Actor de doblaje
Georgia Lass     Ellen Muth           Liliana Barba
Daisy Adair     Sarah Wynter         Adriana Casas
Roxy Harvey    Jasmine Guy          Magda Giner
Cameron Kane Henry Ian Cusick  Roberto Mendiola
Mason                Callum Blue          Gabriel Ortiz

CAPTURAS

ripeado del dvd original que yo tengo

General
Complete name                            : F:Dead Like Me - Life After Death (2009)..avi
Format                                   : AVI
Format/Info                              : Audio Video Interleave
File size                                : 701 MiB
Duration                                 : 1h 27mn
Overall bit rate                         : 1 123 Kbps
Writing application                      : VirtualDubMod 1.5.4.1 (build 2178/release)
Writing library                          : VirtualDubMod build 2178/release

Video
ID                                       : 0
Format                                   : MPEG-4 Visual
Format profile                           : Advanced [email protected]
Format settings, BVOP                    : 1
Format settings, QPel                    : No
Format settings, GMC                     : No warppoints
Format settings, Matrix                  : Custom
Codec ID                                 : XVID
Codec ID/Hint                            : XviD
Duration                                 : 1h 27mn
Bit rate                                 : 988 Kbps
Width                                    : 672 pixels
Height                                   : 384 pixels
Display aspect ratio                     : 16:9
Frame rate                               : 23.976 fps
Color space                              : YUV
Chroma subsampling                       : 4:2:0
Bit depth                                : 8 bits
Scan type                                : Progressive
Compression mode                         : Lossy
Bits/(Pixel*Frame)                       : 0.160
Stream size                              : 617 MiB (88%)
Writing library                          : XviD 64

Audio
ID                                       : 1
Format                                   : MPEG Audio
Format version                           : Version 1
Format profile                           : Layer 3
Mode                                     : Joint stereo
Mode extension                           : MS Stereo
Codec ID                                 : 55
Codec ID/Hint                            : MP3
Duration                                 : 1h 27mn
Bit rate mode                            : Constant
Bit rate                                 : 128 Kbps
Channel(s)                               : 2 channels
Sampling rate                            : 48.0 KHz
Compression mode                         : Lossy
Stream size                              : 79.9 MiB (11%)
Alignment                                : Aligned on interleaves
Interleave, duration                     : 83 ms (2.00 video frames)
Interleave, preload duration             : 504 ms
Writing library                          : LAME3.98r
Encoding settings                        : -m j -V 4 -q 2 -lowpass 17 -b 128
Language                                 : Espanol

billionuploads
 



zippyshare
 
Dead Like Me la pelicula tan muertos como yo latin
45 Puntos Score: 9/10
Visitas: 1795 Favoritos: 4
Ver los usuarios que votaron...
8 Comentarios Dead Like Me la pelicula tan muertos como yo latin
excelente aporte amigo...........me acabe los puntos pero ma?
Interesante. La serie era un tanto m?
aqui estan tus +10  
@esarrian @arribaidenti @AndriusX @shaka19022 de nada gracias por comentar y los puntos saludos
excelente serie no sabia habia pelicula, menos mal hay enlaces de zippyshare sino me iba a frustrar mucho
Para dejar un comentario Registrate! o.. eres ya usuario? Accede!