Lo mejor del vallenato primer pack son videos

Saludos gente de identi la mejor pagina de descargas,hoy les quiero compartir estos videos vallenatos,no son descargados de youtube, son de unos dvds que tengo, los pase a formato avi,para empezar solo son 5 videos,depende si piden mas subo mas, tengo 2 dvds con mas de 60 videos que incluyen grupos como, los diablitos de colombia, nelson velasquez los inquietos,los gigantes del vallenato,los chiches del vallenato,diomedes diaz,binomio de oro,luis mateus,embajadores del vallenato,miguel morales,y varios mas
GOTITAS DE DOLOR HERMANOS ZULETA.avi




LO QUE QUIERAS DE MI BINOMIO DE ORO.avi



ME HACES DAÑO LUIS MATHEUS.avi




TITULO DE AMOR DIOMEDES DIAZ.avi




VOLVAMOS DIOMEDEZ DIAZ.avi





Todos son en formato avi tamaño 50 mb por video



Format                         : AVI
Format/Info                    : Audio Video Interleave
File size                      : 50.0 MiB
Duration                       : 3mn 44s
Overall bit rate               : 1 867 Kbps
Writing application            : VirtualDubMod 1.5.4.1 (build 2178/release)
Writing library                : VirtualDubMod build 2178/release

Video
ID                             : 0
Format                         : MPEG-4 Visual
Format profile                 : Advanced [email protected]
Format settings, BVOP          : Yes
Format settings, QPel          : No
Format settings, GMC           : No warppoints
Format settings, Matrix        : Custom
Codec ID                       : XVID
Codec ID/Hint                  : XviD
Duration                       : 3mn 44s
Bit rate                       : 1 732 Kbps
Width                          : 640 pixels
Height                         : 480 pixels
Display aspect ratio           : 4:3
Frame rate                     : 23.976 fps
Color space                    : YUV
Chroma subsampling             : 4:2:0
Bit depth                      : 8 bits
Scan type                      : Progressive
Compression mode               : Lossy
Bits/(Pixel*Frame)             : 0.235
Stream size                    : 46.4 MiB (93%)
Writing library                : XviD 64

Audio
ID                             : 1
Format                         : MPEG Audio
Format version                 : Version 1
Format profile                 : Layer 3
Mode                           : Joint stereo
Mode extension                 : MS Stereo
Codec ID                       : 55
Codec ID/Hint                  : MP3
Duration                       : 3mn 44s
Bit rate mode                  : Constant
Bit rate                       : 128 Kbps
Channel(s)                     : 2 channels
Sampling rate                  : 48.0 KHz
Compression mode               : Lossy
Stream size                    : 3.43 MiB (7%)
Alignment                      : Aligned on interleaves
Interleave, duration           : 84 ms (2.00 video frames)
Interleave, preload duration   : 504 ms
Writing library                : LAME3.98r
Encoding settings              : -m j -V 4 -q 2 -lowpass 17 -b 128




Lo mejor del vallenato primer pack son videos
5 Puntos Score: 5/10
Visitas: 2289 Favoritos: 1
Ver los usuarios que votaron...
9 Comentarios Lo mejor del vallenato primer pack son videos
desde apodaca  gracias,arriba la indep y el poderoso kombo kolombia
Gracias por compartir. Opino que deberias de:

1. subirlos en archivo .vob
2. subir exitos internacionales o al menos aquellas que han pegado en tu pais para conocerlas.

Saludes.
@PuchiPuchi lo que pasa es que tengo muchos videos, y en formato vob pesan mucho,y a mi me gustan todos los videos que tengo, y aqui en  monterrey mexico donde  vivo todos los grupos de colombia se escuchan y  tienen exito, en unos dias se presentarandiomedes diaz y nelson velasquez,quise subir unos cuantos primero, voy a esperar unas semanas, si veo que no mueren los links quiere decir que los estan descargando, y subo unos cuantos mas,pero si los links mueren por inactividad,tal vez ya no suba mas
che groso ponelo en iso... asi lo uso en el stereo copate!!
@luis_malon amigo tengo 2 discos con 50 videos vallenatos cada uno,dejame ver si puedo subirlos lo estoy pensando ya que no cuento con un buen internet, pero uno de estos dias los veras por ahi posteados
pasa la lista..para poder pedirte los que mas nos gusten...
@amedinam amigo aqui subi un dvd con 50 videos nesecitas el jd o my pony para descargar http://www.identi.li/index.php?topic=260643  
Para dejar un comentario Registrate! o.. eres ya usuario? Accede!