Los simpson temporada 03, mp4 latino


FORMATO MP4 , AUDIO LATINO, TAMAÑO POR CAPITULO ENTRE 45 Y 50 MB, SERVIDOR BILLIONUPLOADS

capturas




CFormat                                   : MPEG-4
Format profile                           : Base Media
Codec ID                                 : isom
File size                                : 46.9 MiB
Duration                                 : 21mn 5s
Overall bit rate mode                    : Variable
Overall bit rate                         : 311 Kbps
Writing application                      : Lavf54.29.104

Video
ID                                       : 1
Format                                   : AVC
Format/Info                              : Advanced Video Codec
Format profile                           : [email protected]
Format settings, CABAC                   : Yes
Format settings, ReFrames                : 8 frames
Codec ID                                 : avc1
Codec ID/Info                            : Advanced Video Coding
Duration                                 : 21mn 5s
Bit rate                                 : 272 Kbps
Width                                    : 400 pixels
Height                                   : 300 pixels
Display aspect ratio                     : 4:3
Frame rate mode                          : Variable
Frame rate                               : 23.000 fps
Minimum frame rate                       : 22.977 fps
Maximum frame rate                       : 23.046 fps
Color space                              : YUV
Chroma subsampling                       : 4:2:0
Bit depth                                : 8 bits
Scan type                                : Progressive
Bits/(Pixel*Frame)                       : 0.099
Stream size                              : 41.1 MiB (88%)

Audio
ID                                       : 2
Format                                   : AAC
Format/Info                              : Advanced Audio Codec
Format profile                           : HE-AACv2 / HE-AAC / LC
Codec ID                                 : 40
Duration                                 : 21mn 5s
Bit rate mode                            : Variable
Bit rate                                 : 32.0 Kbps
Maximum bit rate                         : 128 Kbps
Channel(s)                               : 2 channels / 1 channel / 1 channel
Channel positions                        : Front: L R / Front: C / Front: C
Sampling rate                            : 44.1 KHz / 44.1 KHz / 22.05 KHz
Compression mode                         : Lossy
Stream size                              : 4.83 MiB (10%)


    01 - Papa esta loco.mp4
    02 - El patriotismo de Lisa.mp4
    03 - El d_C3_ADa que cay_C3_B3 Flanders.mp4
    04 - El peque_C3_B1o padrino.mp4
    05 - Homero en el diccionario.mp4
    06 - De tal padre_2C tal payaso.mp4
    07 - Especial de dia de brujas de Los Simpsons II.mp4
    08 - El pony de Lisa.mp4
    09 - Tardes de prueba.mp4
    10 - Llamarada Moe.mp4
    11 - Burns y los alemanes.mp4
    12 - Me case con Marge.mp4
    13 - Bart y la radio.mp4
    14 - Los pronosticos de Lisa.mp4
    15 - Homero se queda solo.mp4
    16 - Bart el amante.mp4
    17 - Homero al bate.mp4
    18 - Vocaciones distintas.mp4
    19 - Nuestro mejor amigo.mp4
    20 - Homero el candidato.mp4
    21 - El viudo negro.mp4
    22 - El rock de Otto.mp4
    23 - Milhouse se enamora.mp4
    24 - El es mi hermano.mp4
    

 
Los simpson temporada 03, mp4 latino
0 Puntos Score: 0/10
Visitas: 1244 Favoritos: 2
1 Comentarios Los simpson temporada 03, mp4 latino
Gracias amigo descargando  
Para dejar un comentario Registrate! o.. eres ya usuario? Accede!