Alberto Barros Tributo a la Salsa Colombiana Todos

Alberto Barros es un músico y compositor colombiano que ha realizado 4 tributos a la salsa colombiana, de los cuales los tres últimos están compartidos en este post.
He realizado un DVD-RIP a MP4 con la mejor calidad de video y audio:

Video
ID                             : 1
Format                         : AVC
Format/Info                    : Advanced Video Codec
Format profile                 : [email protected]
Format settings, CABAC         : Yes
Format settings, ReFrames      : 2 frames
Codec ID                       : avc1
Codec ID/Info                  : Advanced Video Coding
Duration                       : 1h 14mn
Bit rate                       : 2 000 Kbps
Width                          : 720 pixels
Height                         : 480 pixels
Display aspect ratio           : 3:2
Frame rate mode                : Constant
Frame rate                     : 29.970 fps
Standard                       : NTSC
Color space                    : YUV
Chroma subsampling             : 4:2:0
Bit depth                      : 8 bits
Scan type                      : Progressive
Bits/(Pixel*Frame)             : 0.193
Stream size                    : 1.03 GiB (91%)
Writing library                : x264 core 112 r1834 a51816a

Audio
ID                             : 2
Format                         : AC-3
Format/Info                    : Audio Coding 3
Mode extension                 : CM (complete main)
Format settings, Endianness    : Big
Codec ID                       : ac-3
Duration                       : 1h 14mn
Bit rate mode                  : Constant
Bit rate                       : 192 Kbps
Channel(s)                     : 2 channels
Channel positions              : Front: L R
Sampling rate                  : 48.0 KHz
Bit depth                      : 16 bits
Compression mode               : Lossy
Delay relative to video        : 33ms
Stream size                    : 102 MiB (9%)






Alberto Barros - Tributo a La Salsa Colombiana Vol. 1 (2007)
************************************************************





CD:

http://www.identi.li/index.php?topic=46833



Alberto Barros - Tributo a La Salsa Colombiana Vol. 2 (2009)
************************************************************




https://mega.co.nz/#!WMV3XRSB!WvZJwBuz6ok-_x04CQ5G5ykckfFmHrrHSSYuhCPJ_hY




CD:

http://www.identi.li/index.php?topic=46834



Alberto Barros - Tributo a La Salsa Colombiana Vol. 3 (2010)
************************************************************




https://mega.co.nz/#!TFdVnLZD!C8VGKRVRMnrcKczAVUEp63odtcEdHNBWp6TlozWGfE0




CD:

http://www.identi.li/index.php?topic=46840



Alberto Barros - Tributo a La Salsa Colombiana Vol. 4 (2011)
************************************************************




https://mega.co.nz/#!iIVFzKQK!ZNCmVRoX2axPQiqctmnX8GrUBqhi3eEzBjmEeMNoTQQ



CD:

http://www.identi.li/index.php?topic=89919



Alberto Barros - Tributo a La Salsa Colombiana Vol. 5 (2013)
************************************************************





https://mega.co.nz/#!ecNmkaCa!d-YhVHcCPW3mgexNAXDGtAb1uDMPFtIVlvTfgxwuEMM


CD:

http://www.identi.li/index.php?topic=268149


PD. Si por favor alguien tuviese el DVD del "Tributo a la salsa colombiana 1 (2007) - Por Alberto Barros" le pediría que lo compartiese para poder completar la colección en la misma calidad.
Alberto Barros Tributo a la Salsa Colombiana Todos
13 Puntos Score: 6.5/10
Visitas: 13573 Favoritos: 6
Ver los usuarios que votaron...
Más del Autor...
No se encontraron más posts
8 Comentarios Alberto Barros Tributo a la Salsa Colombiana Todos
Aca esta en Youtube descargalo con mozilla o con real player downloader http://www.youtube.com/watch?v=UJJY82nmMV0
Se agradece por los videos, me faltaban el 3 y 4... El 1 esta en youtube como mencionaron mas arriba...
alguien que tenga el tributo a la cumbia colombiana 1 y 2 dvdrip   se lo agradeceria los ando buscando !!!
se te agradece el aporte gracias +10
Gracias amigo.... y en youtube esta la parte uno.... http://www.youtube.com/watch?v=UJJY82nmMV0
esta en 360p en mp4...  
se agradece tu esfuerzo hermano por subir este contenido y yo te doy mis +10 para que vallas cosechando puntos
y no te desanimes y subiendo aportes.
 
Para dejar un comentario Registrate! o.. eres ya usuario? Accede!