Gundam SEED Destiny

Gundam SEED Destiny 










Mobile Suit Gundam SEED Destiny 

???????? S Destiny 
(Kid? Senshi Gandamu S?do Desutin?) 
Género: Anime 
Plantilla:Géneros animanga 
Director Mitsuo Fukuda 
Estudio Sunrise 
Primera emisión 9 de octubre de 2004 
Última emisión 1 de octubre de 2005 
Episodios 50

MediaInfo (para los que gusten)
General
Format                                   : AVI
Format/Info                              : Audio Video Interleave
File size                                : 173 MiB
Duration                                 : 24mn 24s
Overall bit rate                         : 993 Kbps
Writing application                      : VirtualDubMod 1.5.4.1 (build 2066/release)
Writing library                          : VirtualDubMod build 2066/release

Video
ID                                       : 0
Format                                   : MPEG-4 Visual
Format profile                           : Advanced [email protected]
Format settings, BVOP                    : 2
Format settings, QPel                    : No
Format settings, GMC                     : 3 warppoints
Format settings, Matrix                  : Default (H.263)
Muxing mode                              : Packed bitstream
Codec ID                                 : XVID
Codec ID/Hint                            : XviD
Duration                                 : 24mn 24s
Bit rate                                 : 855 Kbps
Width                                    : 640 pixels
Height                                   : 480 pixels
Display aspect ratio                     : 4:3
Frame rate                               : 23.976 fps
Color space                              : YUV
Chroma subsampling                       : 4:2:0
Bit depth                                : 8 bits
Scan type                                : Progressive
Compression mode                         : Lossy
Bits/(Pixel*Frame)                       : 0.116
Stream size                              : 149 MiB (86%)
Writing library                          : XviD 1.0.2 (UTC 2004-08-29)

Audio
ID                                       : 1
Format                                   : MPEG Audio
Format version                           : Version 1
Format profile                           : Layer 3
Mode                                     : Joint stereo
Mode extension                           : MS Stereo
Codec ID                                 : 55
Codec ID/Hint                            : MP3
Duration                                 : 24mn 24s
Bit rate mode                            : Constant
Bit rate                                 : 128 Kbps
Channel(s)                               : 2 channels
Sampling rate                            : 48.0 KHz
Compression mode                         : Lossy
Stream size                              : 22.3 MiB (13%)
Alignment                                : Split accross interleaves
Interleave, duration                     : 42 ms (1.00 video frame)
Interleave, preload duration             : 500 ms



Sinopsis

Tras la batalla de Yakin Due, se firmó finalmente un armisticio entre la Alianza Terrestre y ZAFT, cesando las hostilidades, y trayendo así un periodo de paz. Durante la guerra, Shinn Asuka, habitante de una isla de Orb, sufrió en sus carnes el horror de la misma, perdiendo a su familia ante sus ojos. Tras el shock, abandonó Orb, y se fue a PLANT, convirtiéndose en un soldado de ZAFT. 

Dos años después de la firma del Tratado de Junius 7, hecho que puso fin a la Guerra de San Valentín Sangriento, relatada en Gundam SEED. Éste nuevo escenario presenta a Cagalli Yula Athha acompañada de su guardaespaldas Alex Dino asistiendo a una reunión diplomática con el máximo representante de PLANT, Gilbert Durandal. Durante éste encuentro, uno de los hangares de la base militar de PLANT es asaltado por un grupo de fuerzas especiales de la Alianza Terrestre llamado "Phantom Pain". Esto empuja a Durandal a declarar el estado de alerta y ordenar el despegue del crucero Minerva, con un grupo de pilotos de élite formado por Shinn Asuka, Lunamaria Hawke y Rey Za Burrel, con órdenes de recuperar los Mobile Suits capturados.





















Gundam SEED Destiny
20 Puntos Score: 10/10
Visitas: 2698 Favoritos: 5
Ver los usuarios que votaron...
20 Comentarios Gundam SEED Destiny
+10 Hey me llega Gundam......lo k espero es la Ova del Gundam AGE.......pos de verdad que es algo que no estava en Identi.....Gracias por el aporte  
@isa0091 Gracias a ti por pasar, comentar y aparte dejar puntos!!!!  bro  
excelente gundam de los mejores animes que he visto
@tzen_cr gracias por pasar y comentar bro  
gracias por el anime
@Angerfist @OtakuForev gracias a ustedes por comentar  
gracias gracias  
@orgasabnak Gracias a ti por pasar y comentar  
Descargando... gracias, soy un gundam-fan  
@f3l1p3_M gracias por el aporte pero tengo un problema con los links no puedo no me manda a la pagina  amigo me podrias hacer el favor de pasarme el enlace de descarga por mp desde ya gracias te dejo unos puntos +10
gracias por el aporte, pero tengo una duda dices que son 50 capitulos, pero aparece un capitulo 51 al ver los enlaces en el JD. Adem?
@casv11 ya reviso bro, debe ser que dan problemas esos link, no te aseguro que sea rapido ya que ando de viaje pero en el peor de los casos los resubo...
men aun espero que me soluciones el problema, siguen apareciendo los 51 y faltan los capitulos 24-25 y 26
gracias men se te agradece la ayuda
se agradece un monton , no sabia que esta serie tenia continuacion gracias
una consulta, de casualidad no sabes algo de este epilogo? que no lo encuentro en ning?
No bro, pero deja revisar a ver que consigo...
gracias man!!!
Para dejar un comentario Registrate! o.. eres ya usuario? Accede!