Perdita durango castellano javier bardem +18

 





Perdita Durango es una mujer joven y peligrosa. Cada noche sueña con un jaguar que lame su cuerpo desnudo y se acuesta a su lado. Morena, sexy y muy descarada, lo suyo es aprovecharse del prójimo y vivir a tope, arrastrando con cierto orgullo un pasado bañado en sangre y extrañas pasiones


Director: Alex de la Iglesia

 Reparto: Javier Bardem, Rosie Perez, Harley Cross, Aimee Graham, James Gandolfini, Carlos Bardem, Santiago Segura, Screamin´Jay Hawkins


País(es) España - México - Estados Unidos
Año 1997
Género Comedia, Acción
Duración 126 min


FORMATO WEBM TAMAÑO 593 MiB SERVIDOR BILLIONUPLOADS


Video
ID                             : 1
Format                         : VP8
Codec ID                       : V_VP8
Duration                       : 2h 4mn
Bit rate                       : 502 Kbps
Width                          : 640 pixels
Height                         : 272 pixels
Display aspect ratio           : 2.35:1
Frame rate mode                : Constant
Frame rate                     : 24.194 fps
Compression mode               : Lossy
Bits/(Pixel*Frame)             : 0.119
Stream size                    : 447 MiB (75%)
Default                        : Yes
Forced                         : No

Audio
ID                             : 2
Format                         : Vorbis
Format settings, Floor         : 1
Codec ID                       : A_VORBIS
Duration                       : 2h 4mn
Bit rate mode                  : Variable
Bit rate                       : 128 Kbps
Channel(s)                     : 2 channels
Sampling rate                  : 44.1 KHz
Compression mode               : Lossy
Stream size                    : 114 MiB (19%)
Default                        : Yes
Forced                         : No



Perdita durango castellano javier bardem +18
22 Puntos Score: 7.3/10
Visitas: 4511 Favoritos: 5
Ver los usuarios que votaron...
16 Comentarios Perdita durango castellano javier bardem +18
Gracias por el aporte.
se ve fuerte. gracias por compartir
ok,,, gracias por el aporte
@ferdi35 @robrt24 @gonzaru77 @ivan_oz de nada, no sera una de las mejores peliculas pero si te avientas un rebane viendola
se le tiene que cambiar la extencion, o con que reproductor se abre ???=
para mas ahorita!!!
Como se descarga de ese serviddor!!
Alguien por favor que me diga!!
Cita robrt24: Mostrar
please viejo puede decirme como se descarga de ese servidor o por lo menos si esta en mega o 4s?
@LeomarV este es el link http://billionuploads.com/wgqu9pkdehkh da clic ahi y cuando la abra da clic en crear lazo de descarga de ahi da clic en download no descargues el complemento de firefox solo da clic hasta que te salga la descarga de la la peli creo que son solo tres veces
@LeomarV pasate por este tutorial http://www.identi.li/index.php?topic=149669
y si no puedes descargarla ay te dejo un link para que la veas en youtube
Gracias cuando salga del Job lo intentare!!!
gracias excelente peli  
Para dejar un comentario Registrate! o.. eres ya usuario? Accede!