Caballeros del zodiaco saga hades infierno

Caballeros del zodiaco saga de hades infierno,12 capitulos   audio latino,latino tv, castellano,japones,subtitulos español formato mkv

capturas 

Saint Seiya Saga Hades infierno 01«¡Crúzalo! El río Aqueronte»I.mkv
Format                                   : Matroska
Format version                           : Version 4 / Version 2
File size                                : 350 MiB
Duration                                 : 24mn 32s
Overall bit rate                         : 1 991 Kbps
Encoded date                             : UTC 2013-06-11 16:52:52
Writing application                      : mkvmerge v6.0.0 ('Coming Up For Air') built on Jan 20 2013 09:52:00
Writing library                          : libebml v1.3.0 + libmatroska v1.4.0
Attachment                               : Yes / Yes / Yes / Yes / Yes / Yes / Yes / Yes

Video
ID                                       : 1
Format                                   : AVC
Format/Info                              : Advanced Video Codec
Format profile                           : [email protected]
Format settings, CABAC                   : Yes
Format settings, ReFrames                : 2 frames
Codec ID                                 : V_MPEG4/ISO/AVC
Duration                                 : 24mn 32s
Nominal bit rate                         : 1 371 Kbps
Width                                    : 800 pixels
Height                                   : 592 pixels
Display aspect ratio                     : 4:3
Frame rate mode                          : Constant
Frame rate                               : 23.962 fps
Original frame rate                      : 23.976 fps
Color space                              : YUV
Chroma subsampling                       : 4:2:0
Bit depth                                : 8 bits
Scan type                                : Progressive
Bits/(Pixel*Frame)                       : 0.121
Title                                    : 
Writing library                          : x264 core 57 svn-721bm
Encoding settings                        : cabac=1 / ref=1 / deblock=1:0:0 / analyse=0x3:0x113 / me=umh / subme=6 / brdo=1 / mixed_ref=0 / me_range=16 / chroma_me=1 / trellis=1 / 8x8dct=1 / cqm=0 / deadzone=21,11 / chroma_qp_offset=0 / threads=1 / nr=0 / decimate=1 / mbaff=0 / bframes=2 / b_pyramid=0 / b_adapt=1 / b_bias=0 / direct=1 / wpredb=1 / bime=0 / keyint=250 / keyint_min=25 / scenecut=40 / rc=2pass / bitrate=1371 / ratetol=1.0 / rceq='blurCplx^(1-qComp)' / qcomp=0.60 / qpmin=10 / qpmax=51 / qpstep=4 / cplxblur=20.0 / qblur=0.5 / ip_ratio=1.40 / pb_ratio=1.30
Language                                 : Spanish
Default                                  : Yes
Forced                                   : No

Audio #1
ID                                       : 2
Format                                   : MPEG Audio
Format version                           : Version 1
Format profile                           : Layer 3
Mode                                     : Joint stereo
Mode extension                           : MS Stereo
Codec ID                                 : A_MPEG/L3
Codec ID/Hint                            : MP3
Duration                                 : 24mn 32s
Bit rate mode                            : Constant
Bit rate                                 : 128 Kbps
Channel(s)                               : 2 channels
Sampling rate                            : 48.0 KHz
Compression mode                         : Lossy
Delay relative to video                  : -83ms
Stream size                              : 22.5 MiB (6%)
Title                                    : Japones
Writing library                          : LAME3.98r
Encoding settings                        : -m j -V 4 -q 2 -lowpass 17 -b 128
Language                                 : Japanese
Default                                  : Yes
Forced                                   : No

Audio #2
ID                                       : 3
Format                                   : MPEG Audio
Format version                           : Version 1
Format profile                           : Layer 3
Mode                                     : Joint stereo
Codec ID                                 : A_MPEG/L3
Codec ID/Hint                            : MP3
Duration                                 : 24mn 32s
Bit rate mode                            : Constant
Bit rate                                 : 224 Kbps
Channel(s)                               : 2 channels
Sampling rate                            : 48.0 KHz
Compression mode                         : Lossy
Delay relative to video                  : -83ms
Stream size                              : 39.3 MiB (11%)
Title                                    : Español Latino [DVD]
Language                                 : Spanish
Default                                  : No
Forced                                   : No

Audio #3
ID                                       : 4
Format                                   : MPEG Audio
Format version                           : Version 1
Format profile                           : Layer 3
Codec ID                                 : A_MPEG/L3
Codec ID/Hint                            : MP3
Duration                                 : 24mn 32s
Bit rate mode                            : Constant
Bit rate                                 : 128 Kbps
Channel(s)                               : 2 channels
Sampling rate                            : 44.1 KHz
Compression mode                         : Lossy
Delay relative to video                  : -83ms
Stream size                              : 22.5 MiB (6%)
Title                                    : Espanol Latino [TV]
Language                                 : Spanish
Default                                  : No
Forced                                   : No

Audio #4
ID                                       : 10
Format                                   : AAC
Format/Info                              : Advanced Audio Codec
Format profile                           : LC
Codec ID                                 : A_AAC
Duration                                 : 24mn 32s
Channel(s)                               : 2 channels
Channel positions                        : Front: L R
Sampling rate                            : 44.1 KHz
Compression mode                         : Lossy
Delay relative to video                  : -83ms
Title                                    : castellano
Language                                 : Spanish
Default                                  : No
Forced                                   : No

Text #1
ID                                       : 5
Format                                   : ASS
Codec ID                                 : S_TEXT/ASS
Codec ID/Info                            : Advanced Sub Station Alpha
Compression mode                         : Lossless
Title                                    : Espanol ASS [Con Efectos]
Language                                 : Spanish
Default                                  : Yes
Forced                                   : No

Text #2
ID                                       : 6
Format                                   : ASS
Codec ID                                 : S_TEXT/ASS
Codec ID/Info                            : Advanced Sub Station Alpha
Compression mode                         : Lossless
Title                                    : Espanol ASS [Sin Efectos]
Language                                 : Spanish
Default                                  : No
Forced                                   : No

Text #3
ID                                       : 7
Format                                   : ASS
Codec ID                                 : S_TEXT/ASS
Codec ID/Info                            : Advanced Sub Station Alpha
Compression mode                         : Lossless
Title                                    : Espanol ASS [Sin Efectos]
Language                                 : Spanish
Default                                  : No
Forced                                   : No

Text #4
ID                                       : 8
Format                                   : UTF-8
Codec ID                                 : S_TEXT/UTF8
Codec ID/Info                            : UTF-8 Plain Text
Title                                    : Espanol SRT
Language                                 : Spanish
Default                                  : No
Forced                                   : No

Text #5
ID                                       : 9
Format                                   : UTF-8
Codec ID                                 : S_TEXT/UTF8
Codec ID/Info                            : UTF-8 Plain Text
Title                                    : English
Language                                 : English
Default                                  : No
Forced                                   : No



|   Saint Seiya Saga Hades infierno 01®­Cr£zalo! El r¡o Aqueronte¯I.mkv
|   Saint Seiya Saga Hades infierno 02 ®El tribunal silencioso¯.mkv
|   Saint Seiya Saga Hades infierno 03®Orfeo, El Santo Legendario¯.mkv
|   Saint Seiya Saga Hades infierno 04®Un Triste R?quiem, Orfeo¯.mkv
|   Saint Seiya Saga Hades infierno 05® Una sorprendente posesi¢n¯.mkv
|   Saint Seiya Saga Hades infierno 06®­Combate intenso! El camino hacia Judeca .mkv
|   Saint Seiya Saga Hades infierno 07®­Castigo divino! El Eclipse Grandioso¯.mkv
|   Saint Seiya Saga Hades infierno 08®­Ikki! El golpe de la lamentaci¢n¯.mkv
|   Saint Seiya Saga Hades infierno 09®­Atenea! Arriesga tu vida.mkv
|   Saint Seiya Saga Hades infierno 10®­Desesperaci¢n! El muro de los lamentos¯.mkv
|   Saint Seiya Saga Hades infierno 11®­Reunidas! Las Armaduras de Oro¯.mkv
|   Saint Seiya Saga Hades infierno 12®­Hasta siempre! Santos Dorados¯.mkv
|   




Caballeros del zodiaco saga hades infierno
5 Puntos Score: 5/10
Visitas: 2261 Favoritos: 5
Ver los usuarios que votaron...
12 Comentarios Caballeros del zodiaco saga hades infierno
buen post y que guapa
esta genial pero podrias subirlo a putlocker o mega porfa te lo agradeceria muchisimo es que tengo problemas para descargar de billionuploads, siempre me ha dado dolor de cabeza gracias
exelente muy bueno
buen aporte camarada aver que tal te dejo +5 y la recomendacion  
Excelente Bendiciones !
Excelente Todos tus Aportes en Especial la de los Caballeros del Zodiaco , sus Peliculas , la Saga de Hades te mereces todos los puntos  
gracias excelente todos...amigo tienes la saga del santuario no la tengo
y la de los campos eliseus
@schoeng lo siento amigo solo tengo esos capitulos , pero puedes buscarlos ya los an posteado muchas veces ,
gracias viejoo muy buen trabajoo buenisimo  
lastima link ca?
Para dejar un comentario Registrate! o.. eres ya usuario? Accede!