[Solo Audio Latino]Trilogia Volver al Futuro[MEGA]



A Petición de algunos usuarios lees comparto solo el audio Latino de Volver al futuro la trilogia para la respectiva Calidad del formato HD 1080p.




Format                                   : AC-3
Format/Info                              : Audio Coding 3
File size                                : 266 MiB
Duration                                 : 1h 56mn
Overall bit rate mode                    : Constant
Overall bit rate                         : 320 Kbps

Audio
Format                                   : AC-3
Format/Info                              : Audio Coding 3
Mode extension                           : CM (complete main)
Format settings, Endianness              : Big
Duration                                 : 1h 56mn
Bit rate mode                            : Constant
Bit rate                                 : 320 Kbps
Channel(s)                               : 6 channels
Channel positions                        : Front: L C R, Side: L R, LFE
Sampling rate                            : 48.0 KHz
Bit depth                                : 16 bits
Compression mode                         : Lossy
Stream size                              : 266 MiB (100%)



Por JD:



Y si no usas JD acá el link de descarga:










Format                                   : AC-3
Format/Info                              : Audio Coding 3
File size                                : 247 MiB
Duration                                 : 1h 48mn
Overall bit rate mode                    : Constant
Overall bit rate                         : 320 Kbps

Audio
Format                                   : AC-3
Format/Info                              : Audio Coding 3
Mode extension                           : CM (complete main)
Format settings, Endianness              : Big
Duration                                 : 1h 48mn
Bit rate mode                            : Constant
Bit rate                                 : 320 Kbps
Channel(s)                               : 6 channels
Channel positions                        : Front: L C R, Side: L R, LFE
Sampling rate                            : 48.0 KHz
Bit depth                                : 16 bits
Compression mode                         : Lossy
Stream size                              : 247 MiB (100%)




Por JD:



Y si no usas JD acá el link de descarga:








Format                                   : AC-3
Format/Info                              : Audio Coding 3
File size                                : 271 MiB
Duration                                 : 1h 58mn
Overall bit rate mode                    : Constant
Overall bit rate                         : 320 Kbps

Audio
Format                                   : AC-3
Format/Info                              : Audio Coding 3
Mode extension                           : CM (complete main)
Format settings, Endianness              : Big
Duration                                 : 1h 58mn
Bit rate mode                            : Constant
Bit rate                                 : 320 Kbps
Channel(s)                               : 6 channels
Channel positions                        : Front: L C R, Side: L R, LFE
Sampling rate                            : 48.0 KHz
Bit depth                                : 16 bits
Compression mode                         : Lossy
Stream size                              : 271 MiB (100%)




Por JD:



Y si no usas JD acá el link de descarga:




[Solo Audio Latino]Trilogia Volver al Futuro[MEGA]
45 Puntos Score: 7.5/10
Visitas: 17292 Favoritos: 10
Ver los usuarios que votaron...
15 Comentarios [Solo Audio Latino]Trilogia Volver al Futuro[MEGA]
Gracias yo era de muchos que necesitaba el audio latino. Se agradece.
Gracias amigo  
Gracias amigo aunque no lo necesito en algunos momentos llegue a necesitar audio latino para algunas peliculas y nunca nadie los subio. asi que buen trabajo.
gracias exelente aporte por fin la tengo en la calidad que esperaba descargando para mi coleccion :up:se agradece mucho tu preocupacion por los demas
tengo un problema no puedo sincronizar el audio con respecto a la pelicula se desfasa alguna sugerencia gracias
@14kmex amigo no tienes los DVD full de la 1 y la 2????
@coro No amigo solo tengo el puro video en HD  
@coro Amigo este solo es el archivo de audio latino no incluye video  
@14kmex amigo te entiendo pero a lo que me refiero es que usted me hab?
@coro Ok ya, pues de hecho pensaba subirla en esta semana posterior asi que creo que solo te mencionare el dia en que tenga listo el post para que la descargues  
ok se lo agradezco
amigo tengo los dvdfull, pero solo traen ingles y castellano, crees que me sirvan tus audios, para hacer unos dvd rip y agregarles el audio latino
que buen aporte te felicito
mUCHAS GRACIAS.
Para dejar un comentario Registrate! o.. eres ya usuario? Accede!