La Chica Que Saltaba a través del Tiempo [Mega]

La Chica Que Saltaba a través del Tiempo [Mega] [1Link][Español][DVDRip]




TÍTULO ORIGINAL: Toki wo Kakeru Shôjo (The Girl Who Leapt Through Time)

AÑO: 2006

DURACIÓN: Trailers/Vídeos 

98 min.

PAÍS: Japón

DIRECTOR:Mamoru Hosoda

GUIÓN: Satoko Okudera (Novela: Yasutaka Tsutsui)

MÚSICA: Kiyoshi Yoshida

FOTOGRAFÍA: Animation

REPARTO: Animation

PRODUCTORA: Mad House Ltd.

WEB OFICIAL: http://www.kadokawa.co.jp/tokikake/

PREMIOS: 2006: Festival de Sitges: Mejor película de animación

2007: Festival de Annecy: Distinción especial

GÉNERO: Animación. Fantástico | Viajes en el tiempo



Makoto, la protagonista tanto en la novela como en la película, es una estudiante de instituto con una estilo de vida rutinario en un barrio de Tokio, que tiene dos muy buenos amigos con los que suele ir a jugar al béisbol después de las clases. De repente adquiere el poder de viajar en el tiempo. Al principio utiliza sus poderes para cosas inocentes, como por ejemplo volver dos o tres días al pasado para volver a comer su comida favorita, pero poco a poco va abusando de sus poderes (intenta cambiar su destino y el de sus amigos) y comienzan a suceder paradojas que ponen en peligro su existencia y la de sus amigos.


Format : AVI
Format/Info : Audio Video Interleave
File size : 1.03 GiB
Duration : 1h 34mn
Overall bit rate : 1 549 Kbps
Writing application : VirtualDubMod 1.5.10.2 (build 2540/release)
Writing library : VirtualDubMod build 2540/release

Video
ID : 0
Format : MPEG-4 Visual
Format profile : Advanced [email protected]
Format settings, BVOP : 2
Format settings, QPel : No
Format settings, GMC : No warppoints
Format settings, Matrix : Default (H.263)
Codec ID : XVID
Codec ID/Hint : XviD
Duration : 1h 34mn
Bit rate : 1 411 Kbps
Width : 720 pixels
Height : 396 pixels
Display aspect ratio : 16:9
Frame rate : 25.000 fps
Color space : YUV
Chroma subsampling : 4:2:0
Bit depth : 8 bits
Scan type : Progressive
Compression mode : Lossy
Bits/(Pixel*Frame) : 0.198
Stream size : 957 MiB (91%)
Writing library : XviD 1.2.1 (UTC 2008-12-04)

Audio
ID : 1
Format : MPEG Audio
Format version : Version 1
Format profile : Layer 3
Mode : Joint stereo
Codec ID : 55
Codec ID/Hint : MP3
Duration : 1h 34mn
Bit rate mode : Constant
Bit rate : 128 Kbps
Channel(s) : 2 channels
Sampling rate : 48.0 KHz
Compression mode : Lossy
Stream size : 86.8 MiB (8%)
Alignment : Aligned on interleaves
Interleave, duration : 40 ms (1.00 video frame)
Interleave, preload duration : 504 ms




Enlaces De Descarga
[/font][/size][/color]

La Chica Que Saltaba a través del Tiempo [Mega]
66 Puntos Score: 6/10
Visitas: 20760 Favoritos: 9
Ver los usuarios que votaron...
29 Comentarios La Chica Que Saltaba a través del Tiempo [Mega]
una excelente pelicula, gracias  
Cita mulisha47: Mostrar
Para eso estamos.   Disfr?
gravias por compartir, epero seguir viendo mas aportes tuyos, solamente me quedaron 5 pts en los proximos post te recompenso  
Cita LChapulin: Mostrar
Much?
gracias descargando!
Cita nando40: Mostrar
se ve muy buena . . . descargando  . . .  
Cita perso6soft: Mostrar
y gracias por los puntos  
ya la vi , la recomiendoo
siempre la e querido ver,me recuerda a steins gate la sipnosis
Castellano o esta sub?
negro, esta vaina tiene subtitulos?
mil gracias cual idioma o sub
pucha es en dibujitos!!!
Cita yonhy5: Mostrar
Gracias!
Cita neus: Mostrar

Cita Sinayman: Mostrar
he escuchado que esta pelicula es buena. a fav Gracias!!!
gracias master, te dejo unos puntines
@gambetta Muchas gracias! que la disfrutes!    
La buscaba en dvd full pero no la encontr?
@Vagamundo @LeonArg Gracias por visitar el Post.  
@Velocius Disculpa que te joda (tal vez viste muchas pelis de anime) hay una que no se el nombre, que me conto una amiga trata de 2 hermanas sobreviviendo (en una de esas 1 muere) tenes idea cual es?
Excelente aporte +10! la estaba buscando justo en espa?
descargando , gracias.
gracias, saludos
Para dejar un comentario Registrate! o.. eres ya usuario? Accede!