Spartacus (1960) 1080p Idiomas Español-Ingles



SINOPSIS-INFORMACIÓN
Espartaco era un esclavo tracio que fue vendido como gladiador a Léntulo Batiato. En Italia promovió y dirigió la rebelión de los esclavos (73-71 a. C.) contra la República romana. A medida que recorrían el país, innumerables esclavos se iban sumando a la rebelión. Espartaco intentará llegar con su ejército al sur de Italia para embarcarse con rumbo a sus hogares


General

Format : Matroska
Format version : Version 4 / Version 2
File size : 3 GiB
Duration : 3h 16mn
Overall bit rate : 2 076 Kbps
Movie name : Spartacus [1960][1080p Dual]


Video

ID : 1
Format : AVC
Format/Info : Advanced Video Codec
Format profile : [email protected]
Format settings, CABAC : Yes
Format settings, ReFrames : 4 frames
Codec ID : V_MPEG4/ISO/AVC
Duration : 3h 16mn
Bit rate : 1 499 Kbps
Width : 1 920 pixels
Height : 864 pixels
Display aspect ratio : 2.222
Frame rate mode : Constant
Frame rate : 24.000 fps
Color space : YUV
Chroma subsampling : 4:2:0
Bit depth : 8 bits
Scan type : Progressive
Bits/(Pixel*Frame) : 0.038
Stream size : 2.00 GiB (70%)
Forced : No



Audio #1
ID : 2
Format : AC-3
Format/Info : Audio Coding 3
Mode extension : CM (complete main)
Format settings, Endianness : Big
Codec ID : A_AC3
Duration : 3h 16mn
Bit rate mode : Constant
Bit rate : 320 Kbps
Channel(s) : 6 channels
Channel positions : Front: L C R, Side: L R, LFE
Sampling rate : 48.0 KHz
Bit depth : 16 bits
Compression mode : Lossy
Stream size : 450 MiB (15%)
Title : Español Latino

Default : Yes
Forced : No



Audio #2
ID : 3
Format : AC-3
Format/Info : Audio Coding 3
Mode extension : CM (complete main)
Format settings, Endianness : Big
Codec ID : A_AC3
Duration : 3h 16mn
Bit rate mode : Constant
Bit rate : 256 Kbps
Channel(s) : 6 channels
Channel positions : Front: L C R, Side: L R, LFE
Sampling rate : 48.0 KHz
Bit depth : 16 bits
Compression mode : Lossy
Stream size : 360 MiB (12%)
Title : Ingles
Default : No
Forced : No



CAPTURAS




LINKS
 



CONTRSEÑA
CinemaniaHD.org
Spartacus (1960) 1080p Idiomas Español-Ingles
17 Puntos Score: 5.7/10
Visitas: 4109 Favoritos: 10
Ver los usuarios que votaron...
16 Comentarios Spartacus (1960) 1080p Idiomas Español-Ingles
Cita neus: Mostrar

spartaco tubo un hijo ??????????  
no pero lo tratare de encontrar y gracias por los puntos
Gracias por el aporte...  
muchas gracias se ve y se oye muuuuuuuuuuuuy bien, excelente  
noo  de nada y gracias por comentar
Gracias por compartir bajando ....
el doblaje es espa?
Cita walter132: Mostrar
aun sigo esperando tu respuesta
@cruz1993 hola esta en latino o espa?
Hola, porque no me aparecen los Link de descargas?
MUy buena la pelicula, pero los links estan caidos y si Espartaco tuvo un hijo ; ambas son muy buenas.

 
Para dejar un comentario Registrate! o.. eres ya usuario? Accede!