Hitman (2007) 1080p Dual





SINOPSIS--INFO


Basada en el famoso videojuego del mismo nombre. El agente 47 (Olyphant) es contratado por una misteriosa organización conocida como ?La Agencia? para matar por dinero. El cazador se convertirá en la presa tras un cambio de régimen político. Tanto la Interpol como el ejército ruso perseguirá al asesino por toda Europa del Este, mientras él intenta averiguar quién le tendió la trampa y por qué.


General

Format : Matroska
Format version : Version 4 / Version 2
File size : 1.85 GiB
Duration : 1h 34mn
Overall bit rate : 2 808 Kbps
Movie name : Hitman [2007][1080p Dual][wWw.CinemaniaHD.org]
Encoded date : UTC 2013-06-13 00:20:13
Writing application : mkvmerge v6.1.0 (?Old Devil?) built on Mar 2 2013 14:32:37
Writing library : libebml v1.3.0 + libmatroska v1.4.0



Video
ID : 1
Format : AVC
Format/Info : Advanced Video Codec
Format profile : [email protected]
Format settings, CABAC : Yes
Format settings, ReFrames : 5 frames
Codec ID : V_MPEG4/ISO/AVC
Duration : 1h 34mn
Bit rate : 2 104 Kbps
Width : 1 920 pixels
Height : 816 pixels
Display aspect ratio : 2.35:1
Frame rate mode : Constant
Frame rate : 23.976 fps
Color space : YUV
Chroma subsampling : 4:2:0
Bit depth : 8 bits
Scan type : Progressive
Bits/(Pixel*Frame) : 0.056
Stream size : 1.35 GiB (73%)


Audio #1
ID : 2
Format : AC-3
Format/Info : Audio Coding 3
Mode extension : CM (complete main)
Format settings, Endianness : Big
Codec ID : A_AC3
Duration : 1h 34mn
Bit rate mode : Constant
Bit rate : 448 Kbps
Channel(s) : 6 channels
Channel positions : Front: L C R, Side: L R, LFE
Sampling rate : 48.0 KHz
Bit depth : 16 bits
Compression mode : Lossy
Delay relative to video : 650ms
Stream size : 302 MiB (16%)
Title : Español Latino [wWw.CinemaniaHD.org]
Default : Yes
Forced : No


Audio #2
ID : 3
Format : AC-3
Format/Info : Audio Coding 3
Mode extension : CM (complete main)
Format settings, Endianness : Big
Codec ID : A_AC3
Duration : 1h 34mn
Bit rate mode : Constant
Bit rate : 256 Kbps
Channel(s) : 6 channels
Channel positions : Front: L C R, Side: L R, LFE
Sampling rate : 44.1 KHz
Bit depth : 16 bits
Compression mode : Lossy
Stream size : 173 MiB (9%)
Title : Ingles [wWw.CinemaniaHD.org]
Default : No
Forced : No




CAPTURAS






LINKS


 


CONTRASEÑA

CinemaniaHD.org
Hitman (2007) 1080p Dual
20 Puntos Score: 6.7/10
Visitas: 2397 Favoritos: 6
Ver los usuarios que votaron...
17 Comentarios Hitman (2007) 1080p Dual
gracias por el aporte soy fanatico del sitio CinerManiaHD.org tiene buenas peliss
Gracias bajando  oyes no puedes postrar la de spartacus la vi ah?
Cita chitio2010: Mostrar
es la de 1960  disculpa es q esta cosa no me deja citar mensajes
ah ok carnal sii es 1960 no 1980 jejeje horita lo posteo carnal
Cita chitio2010: Mostrar
LISTO YA LO POSTIE CARNAL
Gracias por la pel?
Cita chitio2010: Mostrar
muchas gracias!!!
Buen aporte, gracias.
de nada por el aporte
no puedo reproducirlo
que reproductor utilizas????
Cita socomix2: Mostrar
de nada canal
Para dejar un comentario Registrate! o.. eres ya usuario? Accede!