Oops.. Este post tiene los enlaces eliminados!

Identi revisa las denuncias de los usuarios en busca de enlaces eliminados que no dejan descargar los archivos, este mensaje te informa que este post que estas viendo tiene los enlaces eliminados.

Usa el Buscador

Por favor, te recomendamos que uses el buscador para encontrar más alternativas.

Dragon ball z - Latino La mejor calidad de la red

  • Categoría: Reciclaje
  • Publicado hace más de 3 años






Comparto este material para todos los fanáticos como yo de Dragon ball Z, así que sin más ahí le dejo mi proyecto listo para su descarga, no pararé hasta verla completa así que con su apoyo y paciencia lo terminaremos!, cualquier error o consulta favor de contactarme por la pagina que pongo mas adelante.

[/font][/size][/color]


[/font][/size][/color]
*Agradecimientos especiales a los autores de este magnifico material: Denamocof & kikiske


[/font][/size][/color]


* CONTENIDO:


Cada episodio viene con el formato original que contiene:



+Opening


+Resumen del episodio anterior


+Nombre del episodio


+EPISODIO


+Avances


+Ending



El contenido esta tal cual, es decir no se le comprimió ni un gramo de calidad.















*DATOS TÉCNICOS:


General


Format : AVI


Format/Info : Audio Video Interleave


File size : 310 MiB (Aproximadamente)


Duration : 24mn 35s


Overall bit rate : 1 760 Kbps


Writing application : VirtualDubMod 1.5.10.2 (build 2540/release)


Writing library : VirtualDubMod build 2540/release



Video

ID : 0


Format: MPEG-4 Visual


Format profile: Advanced [email protected]


Format settings, BVOP          : 2


Format settings, QPel          : No


Format settings, GMC           : No warppoints


Format settings, Matrix        : Default (H.263)


Muxing mode                    : Packed bitstream


Codec ID                       : XVID


Codec ID/Hint                  : XviD


Duration                       : 24mn 35s


Bit rate                       : 1 490 Kbps


Width                          : 640 pixels


Height                         : 480 pixels


Display aspect ratio           : 4:3


Frame rate                     : 23.976 fps


Color space                    : YUV


Chroma subsampling             : 4:2:0


Bit depth                      : 8 bits


Scan type                      : Progressive


Compression mode               : Lossy


Bits/(Pixel*Frame)             : 0.202


Stream size                    : 262 MiB (85%)


Writing library                : XviD 1.1.0 (UTC 2005-11-22)



Audio #1: Español Latino

ID                             : 1


Format                         : MPEG Audio


Format version                 : Version 1


Format profile                 : Layer 3


Codec ID                       : 55


Codec ID/Hint                  : MP3


Duration                       : 24mn 35s


Bit rate mode                  : Constant


Bit rate                       : 128 Kbps


Channel(s)                     : 2 channels


Sampling rate                  : 44.1 KHz


Compression mode               : Lossy


Stream size                    : 22.5 MiB (7%)


Alignment                      : Split accross interleaves


Interleave, duration           : 42 ms (1.00 video frame)


Interleave, preload duration   : 500 ms



Audio #2: Japones

ID                             : 2


Format                         : MPEG Audio


Format version                 : Version 1


Format profile                 : Layer 3


Codec ID                       : 55


Codec ID/Hint                  : MP3


Duration                       : 24mn 35s


Bit rate mode                  : Constant


Bit rate                       : 128 Kbps


Channel(s)                     : 2 channels


Sampling rate                  : 44.1 KHz


Compression mode               : Lossy


Stream size                    : 22.5 MiB (7%)


Alignment                      : Split accross interleaves


Interleave, duration           : 42 ms (1.00 video frame)


Interleave, preload duration   : 500 ms









Contraseña Winrar:

@omrae3k


Contraseña Putlocker:

SonicWorld.Tk




Dragon Ball Z [Dual Lat/Jap] [Putlocker]
Dragon ball z - Latino La mejor calidad de la red
10 Puntos Score: 10/10
Visitas: 316 Favoritos: 2
Ver los usuarios que votaron...
Más del Autor...
No se encontraron más posts
7 Comentarios Dragon ball z - Latino La mejor calidad de la red
parcero y los links pa descargar???
Veo que hay un bug al tratar de reparar la caja de descarga de identi, y en vista que no puedo EDITAR por ser "novato en este portal" sugiero que vallan a la pagina del proyecto: SonicWorld.Tk  
Cita johanx2: Mostrar
tan bueno que no lo puedo creer , tan bueno que no esta disponible para descargar XD
Para dejar un comentario Registrate! o.. eres ya usuario? Accede!