Destino Final 5 [BrRip] [Ingles] [Sub Español]


sinopsis: En destino final 5 la muerte esta mas presente que nunca. Una premonicion de un hombre le salvara,

junto a un grupo de compañeros de trabajo, de una muertras el derrumbe de un puente cogante.


4 partes de un achivo rar encriptado con contraseña

Contraseña: teran2012

Informacion del avi: General

Complete name                    

Format                           : AVI

Format/Info                      : Audio Video Interleave

File size                        : 793 MiB

Duration                         : 1h 31mn

Overall bit rate                 : 1 207 Kbps

Writing application              : Lavf52.57.1


Video

ID                               : 0

Format                           : MPEG-4 Visual

Format profile                   : [email protected]

Format settings, BVOP            : No

Format settings, QPel            : No

Format settings, GMC             : No warppoints

Format settings, Matrix          : Default (H.263)

Codec ID                         : FMP4

Duration                         : 1h 31mn

Bit rate                         : 1 066 Kbps

Width                            : 1 024 pixels

Height                           : 720 pixels

Display aspect ratio             : 1.422

Frame rate                       : 30.000 fps
Color space                      : YUV
Chroma subsampling               : 4:2:0
Bit depth                        : 8 bits
Scan type                        : Progressive
Compression mode                 : Lossy
Bits/(Pixel*Frame)               : 0.048
Stream size                      : 700 MiB (88%)
Writing library                  : Lavc52.62.0
Audio
ID                               : 1
Format                           : MPEG Audio
Format version                   : Version 1
Format profile                   : Layer 3
Mode                             : Joint stereo
Mode extension                   : MS Stereo
Codec ID                         : 55
Codec ID/Hint                    : MP3
Duration                         : 1h 31mn
Bit rate mode                    : Constant
Bit rate                         : 128 Kbps
Channel(s)                       : 2 channels
Sampling rate                    : 44.1 KHz
Compression mode                 : Lossy
Stream size                      : 84.1 MiB (11%)
Alignment                        : Aligned on interleaves
Interleave, duration             : 26 ms (0.78 video frame)
Writing library                  : LAME3.98.2
Capturas:







Lincks de descarga:
http://www.sharebeast.com/il6umdvs9oxehttp://www.sharebeast.com/vu3d3zyqkg01http://www.sharebeast.com/kud2azn6i2p4http://www.sharebeast.com/ry2eb8qq1d7v

subtitulos
http://www.sharebeast.com/6duh1dpw4z86
Destino Final 5 [BrRip] [Ingles] [Sub Español]
0 Puntos Score: 0/10
Visitas: 660 Favoritos: 0
0 Comentarios Destino Final 5 [BrRip] [Ingles] [Sub Español]
Este post no tiene comentarios. Sea el primero!
Para dejar un comentario Registrate! o.. eres ya usuario? Accede!