Naruto - Todos los capítulos [Latino] [AVI]






Naruto Uzumaki es un ninja adolescente que tiene encerrado en su interior al Zorro de Nueve Colas Ky?bi no kitsune. Doce años antes del inicio de la serie, este demonio atacó a la Aldea Oculta de la Hoja, matando a muchas personas. Como consecuencia, el líder de la aldea (el Cuarto Hokage, Minato Namikaze) sacrificó su vida utilizando el Shiki F?jin para sellarlo dentro de Naruto cuando era un recién nacido, con lo que esperaba detener la masacre. Por ello, Naruto fue víctima de maltratos por quienes lo consideraban como el propio Ky?bi. A manera de solución, el Tercer Hokage (quien tuvo que reasumir el mando luego del sacrificio del Cuarto Hokage) publicó un decreto donde prohibía a cualquiera la mención sobre el ataque del Ky?bi, y quien lo hiciera sería severamente castigado. Doce años más tarde, Naruto se gradúa de la Academia Ninja usando su técnica clones de sombra , proveniente del pergamino prohibido de la aldea, el cual había robado tras ser engañado por el ninja renegado Mizuki, con el supuesto fin de salvar a su maestro Iruka Umino. Este encuentro le permitió a Naruto percatarse de que él era el recipiente contenedor del Ky?bi, y que había alguien que lo estimaba y lo reconocía moralmente como una persona.






Naruto - Todos los capítulos [Latino] [AVI]
65 Puntos Score: 9.3/10
Visitas: 4135 Favoritos: 11
Ver los usuarios que votaron...
21 Comentarios Naruto - Todos los capítulos [Latino] [AVI]
tenes los capitulos de shippuden en buena calidad y en gallego?
Gracias tiene tiempo que la buscaba desde el inicio
Gracias!!! Excelente aportazo!!  
links no sirven
Cita ethru: Mostrar

Claro que si sirven.
Para descargar usen el j :)downloader beta....gracias por compartir alkan...
que calidad y resolucion son?? mas info!
gracias pero dice 220 cap?
Muchas gracias x el aporte
y la calidad es esta

Format                         : AVI
Format/Info                    : Audio Video Interleave
File size                      : 85.5 MiB
Duration                       : 22mn 9s
Overall bit rate               : 539 Kbps
Writing application            : VirtualDubMod 1.5.10.2 (build 2540/release)
Writing library                : VirtualDubMod build 2540/release

Video
ID                             : 0
Format                         : MPEG-4 Visual
Format profile                 : Advanced [email protected]
Format settings, BVOP          : 2
Format settings, QPel          : No
Format settings, GMC           : 3 warppoints
Format settings, Matrix        : Default (H.263)
Codec ID                       : XVID
Codec ID/Hint                  : XviD
Duration                       : 22mn 9s
Bit rate                       : 482 Kbps
Width                          : 640 pixels
Height                         : 480 pixels
Display aspect ratio           : 4:3
Frame rate                     : 25.000 fps
Color space                    : YUV
Chroma subsampling             : 4:2:0
Bit depth                      : 8 bits
Scan type                      : Progressive
Compression mode               : Lossy
Bits/(Pixel*Frame)             : 0.063
Stream size                    : 76.4 MiB (89%)
Writing library                : XviD 1.1.2 (UTC 2006-11-01)

Audio
ID                             : 1
Format                         : MPEG Audio
Format version                 : Version 2
Format profile                 : Layer 3
Mode                           : Joint stereo
Mode extension                 : MS Stereo
Codec ID                       : 55
Codec ID/Hint                  : MP3
Duration                       : 22mn 9s
Bit rate mode                  : Constant
Bit rate                       : 48.0 Kbps
Channel(s)                     : 2 channels
Sampling rate                  : 24.0 KHz
Compression mode               : Lossy
Stream size                    : 7.61 MiB (9%)
Alignment                      : Aligned on interleaves
Interleave, duration           : 40 ms (1.00 video frame)
Interleave, preload duration   : 504 ms
@BHIRKAL Entra al servidor zippyshare.... y encontraras los demas videos..
Excelente!!!  
amigo kreo ke falta el capitulo numero 10 unos estan repetidos pero el 10 no lo encuentro
Gracias.. a descargar se a dicho.. jeje  
porque no en mega? :/
lastima que no estan en servidor mega
Gracias amigooo te apsate descargando  
Faltan muchos cap?
gracias buen trabajo (Y)
Exelenet Muchas Gracias
desgraciadamente  no aparece  la opci?
Gracias por el aporte, en realidad solo lo descargo para probar el tipo de video en la PlayStation 2 con el SMP, pero igual gracias por compartir.
Para dejar un comentario Registrate! o.. eres ya usuario? Accede!