Everwood temporada 1 capitulos 1 al 6 castellano

Bienvenidos a este nuevo post, hoy les vengo a compartir esta exelente serie, son los primeros 6 capitulos de la primera temporada,los capitulos son en castellano y en formato avi, los demas se iran subiendo en los proximos dias para completar la primera temporada, y ya veremos si me piden las otras temporadas, are un esfuerzo para compartirlas con ustedes,asi que deja tu comentario si vas a querer las otras temporadas




El doctor Brown (Treat Williams), un neurocirujano reconocido mundialmente, cambia radicalmente de vida tras fallecer su mujer en un accidente de tráfico. Decide dejar su trabajo en el hospital para mudarse al pequeño Everwood, junto a sus hijos Ephram (Gregory Smith) y Delia (Vivien Cardone). Allí, los tres deberán adaptarse a una nueva vida: el doctor deberá lidiar con el otro médico del pueblo, el doctor Abbot (Tom Amandes), la adolescencia de Ephram y la pena de Delia.
Temporada 1 
La serie comienza con la llegada del Doctor Andy Brown, un viudo quien abandona su trabajo estando en la cima como neurocirujano de la ciudad de Nueva York para vivir en una pequeña ciudad del Colorado, trayendo a su hija Delia de 9 años y Ephram, el hijo de 15 años, con él. Él escoge la ciudad de Everwood porque su difunta esposa se lo había dicho como su última voluntad si algún día le pasaba algo. Muchas de las tramas de la serie tratan de los conflictos de adaptación a un sitio nuevo, así como la relación con la gente nueva. El Doctor Brown, Andy para los amigos, se encuentra en un principio con un molesto Doctor Harold Abbott, que hasta ahora ha sido el único médico de familia de la ciudad, y con quien sus opiniones profesionales se diferencian. Sin embargo, el comportamiento irritable del Doctor Abbott y la actitud pasiva y alegre de Andy, los dos comienzan una rivalidad amistosa. Ephram continuamente lucha como adolescente en sus estudios como un pianista clásico y sus altibajos con Amy Abbott, la hija del Doctor Abbott.
La primera temporada gira alrededor de la trama principal que implica a Colin Hart, el novio de Amy, y el mejor amigo de su hermano mayor Bright. Amy ve la llegada de Doctor Brown como una oportunidad para salvar a su novio; Colin ha estado en un coma desde el Día de la Independencia el pasado verano después de que él y Bright tuvieran un accidente de coche. Amy comienza una amistad con Ephram para convencer al Doctor Brown para reanudar sus habilidades de cirugía cerebrales y salvar a Colin. El Doctor Brown pese a sus reticencias acepta llevar el caso. Amy se alegra, pero Bright es más reticente. Más tarde, confiesa llorando a su padre que recuerda todo lo que pasó en el accidente: él era el que conducía el camión del padre de Colin. Tras la intervención del Doctor Brown Colin despierta del coma.
Mientras tanto, los abuelos maternos de Ephram vienen para visitar su nuevo hogar en Everwood y Ephram decide que quiere volver a la ciudad de Nueva York para vivir con ellos. El abuelo de Ephram, también un cirujano, recrimina a Andy que se haya llevado a sus nietos tan lejos en un acto de ?locura?.
Delia y su abuela traban amistad con Edna Abbott, una enfermera semi-jubilada del ejército y la madre de Harold Abbott. Ellas deciden organizarle una fiesta de cumpleaños sorpresa a Edna en casa del Doctor Brown. Durante la fiesta, delante de todos los invitados, Ephram y Andy tienen una discusión sobre su marcha a la ciudad de Nueva York. El abuelo de Epham y Andy también comienzan discutir sobre la situación, pero son interrumpidos al desmayarse Bright. Necesitan urgentemente extirparle el apéndice pero la nieve impide que puedan ir al hospital, entonces ellos hacen una cirugía de emergencia en la oficina de Andy.
Andy confiesa a Ephram que si se marcha a Nueva York él se sentirá ?medio hombre? y que él es una parte muy importante para él para sentirse completo y feliz en su vida. Después de estas palabras Ephram decide quedarse en Everwood con su famila. Andy encuentra a su vecina Nina después de una discusión con Ephram en la yarda delantera. Ella es amistosa, abierta y honesta. Nina confiesa a Andy que ella es la madre de alquiler para una mujer que es incapaz de concebir un hijo. Un escándalo estalla cuando Nina tiene el bebé y esto es revelado, y al descubrir también que la madre tiene cincuenta años, pero Andy apoya la decisión de Nina.
Al despertar del coma, Colin Hart vuelve a casa después de una larga rehabilitación, considerada como milagrosa por los especialistas en el caso. De las secuelas de la operación está la pérdida de memoria, no recordando así a sus padres, amigos?y a Amy. Colin siente presión porque todo el mundo espera que siga como antes, pero él no recuerda como era antes nada, y empieza una relación de amistad con Ephram ya que es la única persona quien no tiene una noción preconcebida de él. Pronto, Colin comienza a repartir golpes a diestro y siniestro violentamente y pierde su amistad con Ephram. Ephram intenta dejar ver a sus amigos que Colin no actúa normalmente, pero Amy cree que él solamente está celoso de su relación con Colin y que Colin está "bajo mucha presión". Bright, frustrado de la amistad de Colin porqué no es como antes y no entiende sus cambios de humor, recibe un golpe de Colin por defender a Ephram de un ataque de éste.
El único que hace caso y cree a Ephram cuando dice que la actitud de Colin no es normal es Andy, y éste entabla una conversación con los padres de Colin. Ellos se niegan a creer que Colin esté mal. Sin embargo, los síntomas físicos comienzan a manifestarse también y Colin sufre un ataque convulsivo. Los exámenes muestran que hay complicaciones en el cerebro de Colin tras la rehabilitación y tiene que ser intervenido quirúrgicamente de nuevo de urgencia, pues su vida está en peligro. Los padres de Colin piden al Doctor Brown que opere otra vez a su hijo, pero durante la cirugía surgen complicaciones... 


CAPITULO 1

DETALLES
Everwood_1x01.avi
Format                                   : AVI
Format/Info                              : Audio Video Interleave
File size                                : 323 MiB
Duration                                 : 42mn 34s
Overall bit rate                         : 1 060 Kbps
Writing application                      : Lavf52.23.1

Video
ID                                       : 0
Format                                   : xvid
Codec ID                                 : xvid
Duration                                 : 42mn 33s
Bit rate                                 : 953 Kbps
Width                                    : 640 pixels
Height                                   : 368 pixels
Display aspect ratio                     : 16:9
Frame rate                               : 23.976 fps
Bits/(Pixel*Frame)                       : 0.169
Stream size                              : 290 MiB (90%)

Audio
ID                                       : 1
Format                                   : MPEG Audio
Format version                           : Version 1
Format profile                           : Layer 3
Mode                                     : Joint stereo
Mode extension                           : MS Stereo
Codec ID                                 : 55
Codec ID/Hint                            : MP3
Duration                                 : 42mn 34s
Bit rate mode                            : Constant
Bit rate                                 : 96.0 Kbps
Channel(s)                               : 2 channels
Sampling rate                            : 44.1 KHz
Compression mode                         : Lossy
Stream size                              : 29.2 MiB (9%)
Alignment                                : Aligned on interleaves
Interleave, duration                     : 26 ms (0.63 video frame)
Interleave, preload duration             : 26 ms
Writing library                          : LAME3.98.2


DESCARGA
BILLIONUPLOADS



DESCARGA ZIPPYSHARE





CAPITULO 2

DETALLES

Everwood_1x02.avi
Format                                   : AVI
Format/Info                              : Audio Video Interleave
File size                                : 319 MiB
Duration                                 : 42mn 4s
Overall bit rate                         : 1 060 Kbps
Writing application                      : Lavf52.23.1

Video
ID                                       : 0
Format                                   : xvid
Codec ID                                 : xvid
Duration                                 : 42mn 3s
Bit rate                                 : 952 Kbps
Width                                    : 640 pixels
Height                                   : 368 pixels
Display aspect ratio                     : 16:9
Frame rate                               : 23.976 fps
Bits/(Pixel*Frame)                       : 0.169
Stream size                              : 286 MiB (90%)

Audio
ID                                       : 1
Format                                   : MPEG Audio
Format version                           : Version 1
Format profile                           : Layer 3
Mode                                     : Joint stereo
Mode extension                           : MS Stereo
Codec ID                                 : 55
Codec ID/Hint                            : MP3
Duration                                 : 42mn 4s
Bit rate mode                            : Constant
Bit rate                                 : 96.0 Kbps
Channel(s)                               : 2 channels
Sampling rate                            : 44.1 KHz
Compression mode                         : Lossy
Stream size                              : 28.9 MiB (9%)
Alignment                                : Aligned on interleaves
Interleave, duration                     : 26 ms (0.63 video frame)
Interleave, preload duration             : 26 ms
Writing library                          : LAME3.98.2

DESCARGA
BILLIONUPLOADS 



ZIPPYSHARE


CAPITULO 3

DETALLES
Everwood 1x03.avi

Format                                   : AVI
Format/Info                              : Audio Video Interleave
File size                                : 304 MiB
Duration                                 : 40mn 1s
Overall bit rate                         : 1 061 Kbps
Writing application                      : Lavf52.23.1

Video
ID                                       : 0
Format                                   : xvid
Codec ID                                 : xvid
Duration                                 : 40mn 1s
Bit rate                                 : 952 Kbps
Width                                    : 640 pixels
Height                                   : 368 pixels
Display aspect ratio                     : 16:9
Frame rate                               : 23.976 fps
Bits/(Pixel*Frame)                       : 0.169
Stream size                              : 273 MiB (90%)

Audio
ID                                       : 1
Format                                   : MPEG Audio
Format version                           : Version 1
Format profile                           : Layer 3
Mode                                     : Joint stereo
Codec ID                                 : 55
Codec ID/Hint                            : MP3
Duration                                 : 40mn 1s
Bit rate mode                            : Constant
Bit rate                                 : 96.0 Kbps
Channel(s)                               : 2 channels
Sampling rate                            : 44.1 KHz
Compression mode                         : Lossy
Stream size                              : 27.5 MiB (9%)
Alignment                                : Aligned on interleaves
Interleave, duration                     : 26 ms (0.63 video frame)
Interleave, preload duration             : 26 ms
Writing library                          : LAME3.98.2

DESCARGA BILLIONUPLOAS



DESCARGA ZIPPYSHARE


CAPITULO 4

DETALLES

Everwood 1x04.avi
Format                                   : AVI
Format/Info                              : Audio Video Interleave
File size                                : 306 MiB
Duration                                 : 40mn 16s
Overall bit rate                         : 1 062 Kbps
Writing application                      : Lavf52.23.1

Video
ID                                       : 0
Format                                   : xvid
Codec ID                                 : xvid
Duration                                 : 40mn 15s
Bit rate                                 : 954 Kbps
Width                                    : 640 pixels
Height                                   : 368 pixels
Display aspect ratio                     : 16:9
Frame rate                               : 23.976 fps
Bits/(Pixel*Frame)                       : 0.169
Stream size                              : 275 MiB (90%)

Audio
ID                                       : 1
Format                                   : MPEG Audio
Format version                           : Version 1
Format profile                           : Layer 3
Mode                                     : Joint stereo
Mode extension                           : MS Stereo
Codec ID                                 : 55
Codec ID/Hint                            : MP3
Duration                                 : 40mn 16s
Bit rate mode                            : Constant
Bit rate                                 : 96.0 Kbps
Channel(s)                               : 2 channels
Sampling rate                            : 44.1 KHz
Compression mode                         : Lossy
Stream size                              : 27.7 MiB (9%)
Alignment                                : Aligned on interleaves
Interleave, duration                     : 26 ms (0.63 video frame)
Interleave, preload duration             : 26 ms
Writing library                          : LAME3.98.2


 DESCARGA
BILLIONUPLOADS


DESCARGA ZIPPYSHARE




CAPITULO 5

DETALLES
Everwood 1x05.avi
Format                                   : AVI
Format/Info                              : Audio Video Interleave
File size                                : 323 MiB
Duration                                 : 42mn 38s
Overall bit rate                         : 1 058 Kbps
Writing application                      : Lavf52.23.1

Video
ID                                       : 0
Format                                   : xvid
Codec ID                                 : xvid
Duration                                 : 42mn 38s
Bit rate                                 : 949 Kbps
Width                                    : 640 pixels
Height                                   : 368 pixels
Display aspect ratio                     : 16:9
Frame rate                               : 23.976 fps
Bits/(Pixel*Frame)                       : 0.168
Stream size                              : 290 MiB (90%)

Audio
ID                                       : 1
Format                                   : MPEG Audio
Format version                           : Version 1
Format profile                           : Layer 3
Mode                                     : Joint stereo
Mode extension                           : MS Stereo
Codec ID                                 : 55
Codec ID/Hint                            : MP3
Duration                                 : 42mn 38s
Bit rate mode                            : Constant
Bit rate                                 : 96.0 Kbps
Channel(s)                               : 2 channels
Sampling rate                            : 44.1 KHz
Compression mode                         : Lossy
Stream size                              : 29.3 MiB (9%)
Alignment                                : Aligned on interleaves
Interleave, duration                     : 26 ms (0.63 video frame)
Interleave, preload duration             : 26 ms
Writing library                          : LAME3.98.2

DESCARGA UN LINK BILLIONUPLOADS
[/size]
[/color]

CAPITULO 6

DETALLES
Everwood_1x06.avi

Format                                   : AVI
Format/Info                              : Audio Video Interleave
File size                                : 320 MiB
Duration                                 : 42mn 8s
Overall bit rate                         : 1 061 Kbps
Writing application                      : Lavf52.23.1

Video
ID                                       : 0
Format                                   : xvid
Codec ID                                 : xvid
Duration                                 : 42mn 8s
Bit rate                                 : 953 Kbps
Width                                    : 640 pixels
Height                                   : 368 pixels
Display aspect ratio                     : 16:9
Frame rate                               : 23.976 fps
Bits/(Pixel*Frame)                       : 0.169
Stream size                              : 287 MiB (90%)

Audio
ID                                       : 1
Format                                   : MPEG Audio
Format version                           : Version 1
Format profile                           : Layer 3
Mode                                     : Joint stereo
Mode extension                           : MS Stereo
Codec ID                                 : 55
Codec ID/Hint                            : MP3
Duration                                 : 42mn 8s
Bit rate mode                            : Constant
Bit rate                                 : 96.0 Kbps
Channel(s)                               : 2 channels
Sampling rate                            : 44.1 KHz
Compression mode                         : Lossy
Stream size                              : 28.9 MiB (9%)
Alignment                                : Aligned on interleaves
Interleave, duration                     : 26 ms (0.63 video frame)
Interleave, preload duration             : 26 ms
Writing library                          : LAME3.98.2 


DESCARGA BILLIONUPLOADS


DESCARGA ZIPPYSHARE











Everwood temporada 1 capitulos 1 al 6 castellano
0 Puntos Score: 0/10
Visitas: 1042 Favoritos: 0
2 Comentarios Everwood temporada 1 capitulos 1 al 6 castellano
No sabes cuanto te agradezco estaba buscandola hace mucho..
espero que subas los dem?
Para dejar un comentario Registrate! o.. eres ya usuario? Accede!