Oops.. Este post tiene los enlaces eliminados!

Identi revisa las denuncias de los usuarios en busca de enlaces eliminados que no dejan descargar los archivos, este mensaje te informa que este post que estas viendo tiene los enlaces eliminados.

Usa el Buscador

Por favor, te recomendamos que uses el buscador para encontrar más alternativas.

Nosotros Los Nobles [Mega]

  • Categoría: Reciclaje
  • Publicado hace más de 3 años
Nosotros Los Nobles











Hola amigos, ya tenia rato que no aportaba algo, y pues fui al cine y vi esta peli y me quede con ganas de verla nuevamente pero no la encontre aqui en Identi, por lo que despues de una larga busqueda la baje de un server malisimo pero el dia de hoy logre terminar la descarga y la subi a Mega, parti el archivo en 7 partes 6 de 100 Mb y una de 80 Mb esto  porque se que algunos tienen una conexion lenta y pues de esta forma se les hara mas facil bajar las partes poco a poco que todas de un jalon, bueno sin mas por el momento les dejo la info, para quienes pregunten es calidad Cam

Cuando Germán Noble (Gonzalo Vega) -un manipulador y poderoso empresario- se da cuenta que los haraganes de sus hijos Javi (Luis Gerardo Méndez), Bárbara (Karla Souza) y Charlie (Juan Pablo Gil) están tirando sus vidas por la borda, decide fingir la quiebra de su empresa para darles una lección, haciéndoles creer que todas sus propiedades fueron embargadas: los deja sin coches, celulares y tarjetas de crédito; los lleva a vivir a un vecindario pobre; los hace cambiarse de apellido, y cortar contacto con todos sus amigos para salir adelante haciendo algo que ninguno de ellos había hecho antes... trabajar. 

Será ahí y bajo esas condiciones donde los hijos de Germán aprenderán cuál es su valor sin un apellido, fortuna y posición social. Mientras que el propio Germán aprenderá una lección: su error no fue educar a sus hijos con mano suave, sino que prefirió ser empresario que ser papá.


Informacion del archivo segun MediaInfo [/left]
[/left]
General[/left]
[/left]
Format                                   : MPEG-4[/left]
Format profile                           : Base Media[/left]
Codec ID                                 : isom[/left]
File size                                : 665 MiB[/left]
Duration                                 : 1h 8mn[/left]
Overall bit rate mode                    : Variable[/left]
Overall bit rate                         : 1 357 Kbps[/left]
Movie name                               : New New-[/left]
Genre                                    : MyDVD[/left]
Writing application                      : DigiArty AV Encoder Core[/left]
[/left]
Video[/left]
ID                                       : 1[/left]
Format                                   : MPEG-4 Visual[/left]
Format profile                           : [email protected][/left]
Format settings, BVOP                    : No[/left]
Format settings, QPel                    : No[/left]
Format settings, GMC                     : No warppoints[/left]
Format settings, Matrix                  : Default (H.263)[/left]
Codec ID                                 : 20[/left]
Duration                                 : 1h 8mn[/left]
Bit rate                                 : 1 270 Kbps[/left]
Width                                    : 720 pixels[/left]
Height                                   : 404 pixels[/left]
Display aspect ratio                     : 16:9[/left]
Frame rate mode                          : Constant[/left]
Frame rate                               : 29.970 fps[/left]
Color space                              : YUV[/left]
Chroma subsampling                       : 4:2:0[/left]
Bit depth                                : 8 bits[/left]
Scan type                                : Progressive[/left]
Compression mode                         : Lossy[/left]
Bits/(Pixel*Frame)                       : 0.146[/left]
Stream size                              : 623 MiB (94%)[/left]
Writing library                          : DigiArty AV Encoder Core[/left]
[/left]
Audio[/left]
ID                                       : 2[/left]
Format                                   : AAC[/left]
Format/Info                              : Advanced Audio Codec[/left]
Format profile                           : LC[/left]
Codec ID                                 : 40[/left]
Duration                                 : 1h 8mn[/left]
Bit rate mode                            : Variable[/left]
Bit rate                                 : 82.7 Kbps[/left]
Channel(s)                               : 1 channel[/left]
Channel positions                        : Front: C[/left]
Sampling rate                            : 48.0 KHz[/left]
Compression mode                         : Lossy[/left]
Stream size                              : 40.5 MiB (6%)[/left]















Enlaces De Descarga

C0nfick3r
Nosotros Los Nobles [Mega]
14 Puntos Score: 4.7/10
Visitas: 18927 Favoritos: 2
Ver los usuarios que votaron...
29 Comentarios Nosotros Los Nobles [Mega]
Buen post!
Disculpa podes poner capturas de la pelicula?
@joseamat woaa!
pues que gran inteligencia tendran en tu pais o de donde las bajas......!
@Tony_Lp XD pues dice que es de peru
@conficker jajajajajajajajaja xD  
Esta incompleta y es calidad CAM, pero de todas formas GRACIAS!!  
@crutapia Gracias por dar la info mejor no la bajo. nos vemos.
pffss  tanto que tarde bajandola pensando que estaba bien y esta pesima
Si las porquerias del cine barato de EEUU son insoportables, peor cuando la imitan los mexicanos...  
jajajaja...
Ni  aunque me paguen veria esta  basura  de pelicula!!!! por eso  nos tienen a los  Mexicanos en el concepto de idiotas  y creen que todos somos  igual que los  imbeciles  que salen en esta basura de pelciula..
malisima     pro ahy te van puntos ya q......
buena pelicula vale le pena verla y criticar menos  saludos por tu esfuerzo gracias
@vampyro100 OMG me quede hipnotizado con tu avatar. Buenisima la mina. Como se llama?
Si esta completa, pero es version cam. Ni modo, ya la descargue. Ojala hubiesen aclarado de que version se trataba. Gracias igualmente
y como para cuando la tendr?
Cita g3rp2: Mostrar
No, le faltan como 20 minutos.
Gracias por subirla man, pero esperar?
@g3rp2 No leiste bien! porque si lo aclare!
@naarajhz aun esta en el cine XD por lo que tardara un poco
muchisimas gracias, llevo buscando esta peli, y al fin lo encuentro, perdona por los puntos, espero pagartelos despues    chido  
ok la esperare grax por la info  
@SREDEF aunque es en esta calidad es muy dificil encontrarla espero y la disfrutes!
@joseamat mencioname a un comico Peruano! Yo te menciono solo a Chespirito y con ese tienes, hay un canal en YouTube peruano disque que hacen comedia, EnchufeTv, valla mierda!  
fuera de linea bro. vuelvelas a subir we por fa...saludos.
esta del asco, le falta una parte y de super mala calidad
Cita joseamat: Mostrar
@mianro10 Estoy en internet, man, para no conformarme con las mediocridades de mi pa?
@joseamat tendrias que ver la peli para poder criticarla, no he visto alguna pelicula gringa que sea como esta! y televisa es otro tema muy aparte
Solo tengo una pregunta. Esta version esta en buena calidad?. Y la pelicula esta buena.
k pedo eliminaron los links
Para dejar un comentario Registrate! o.. eres ya usuario? Accede!