la huesped the host 2013 dvdrip sub. esp putlocker

la huesped the host 2013 dvdrip subtitulada en español latino putlocker












sinopsis
Cuando Melanie, uno de los pocos humanos salvajes que quedan, se ve capturada, está segura de que se enfrenta a su fin. A Wanderer, el «alma» intrusa asignada al cuerpo de Melanie, le advirtieron sobre los cambios que implicaba vivir dentro de un humano: las emociones irrefrenables, la abundancia exorbitante de las sensaciones, los recuerdos demasiado vívidos. Pero había una dificultad que Wanderer no esperaba: la anterior inquilina de su cuerpo se niega a renunciar a la posesión de su mente.
Wanderer se dedica a explorar los pensamientos de Melanie, esperando descubrir el paradero de ese remanente de resistencia humana. Por su parte, Melanie llena la mente de Wanderer con visiones del hombre que Melanie ama: Jared, un humano que sigue viviendo oculto.
Incapaz de separarse a sí misma de los deseos de su cuerpo, Wanderer comienza a anhelar al hombre que le han encomendado desenmascarar. Cuando fuerzas externas obligan a Wanderer y Melanie a hacerse aliadas, ambas emprenden una peligrosa e incierta búsqueda del hombre que aman.
ficha tecnica de la pelicula

Format                           : AVI
Format/Info                      : Audio Video Interleave
File size                        : 532 MiB
Duration                         : 1h 57mn
Overall bit rate                 : 636 Kbps
Writing application              : MEncoder SVN-r33883(20110719-gcc4.5.2)
Writing library                  : MPlayer

Video
ID                               : 0
Format                           : MPEG-4 Visual
Format profile                   : Advanced [email protected]
Format settings, BVOP            : 2
Format settings, QPel            : No
Format settings, GMC             : No warppoints
Format settings, Matrix          : Default (H.263)
Codec ID                         : XVID
Codec ID/Hint                    : XviD
Duration                         : 1h 57mn
Bit rate                         : 510 Kbps
Width                            : 640 pixels
Height                           : 272 pixels
Display aspect ratio             : 2.35:1
Frame rate                       : 29.970 fps
Color space                      : YUV
Chroma subsampling               : 4:2:0
Bit depth                        : 8 bits
Scan type                        : Progressive
Compression mode                 : Lossy
Bits/(Pixel*Frame)               : 0.098
Stream size                      : 427 MiB (80%)
Writing library                  : XviD 1.2.1 (UTC 2008-12-04)

Audio
language                        : english
subtitles                         : spanish
ID                               : 1
Format                           : MPEG Audio
Format version                   : Version 1
Format profile                   : Layer 3
Mode                             : Joint stereo
Mode extension                   : MS Stereo
Codec ID                         : 55
Codec ID/Hint                    : MP3
Duration                         : 1h 57mn
Bit rate mode                    : Constant
Bit rate                         : 112 Kbps
Channel(s)                       : 2 channels
Sampling rate                    : 44.1 KHz
Compression mode                 : Lossy
Delay relative to video          : 67ms
Stream size                      : 93.7 MiB (18%)
Alignment                        : Aligned on interleaves
Interleave, duration             : 26 ms (0.78 video frame)
Interleave, preload duration     : 522 ms
Writing library                  : LAME3.98.4

capturas reales de pelicula















Enlaces De Descarga

no tienen
la huesped the host 2013 dvdrip sub. esp putlocker
10 Puntos Score: 10/10
Visitas: 4303 Favoritos: 2
Ver los usuarios que votaron...
10 Comentarios la huesped the host 2013 dvdrip sub. esp putlocker
me late que subiste o posteaste el hdrip koreano en 480p como un anticipo al release de la misma que en estas semanas se filtrara por la red en su version bluray
si te da por bajarla veras que no es la misma y los subtitulos  los edite yo mismo me le?
GRACIAS PERO PODRIAS SUBIR UN SOLO LINK PORFAS
gracias, se ve buena esta pel?
Gracias  por  tu tiempo  y aportes  amigo,  saludos  !!
Gracias por el aporte,pero cuando lo abro el audio me sale desfasado, sera mi compu?  
gracias por el aporte
es dvdscr y el audio esta desfasado, pero es el unico que la ha posteado, por eso se agradece, ser el primero no es facil, gracias man
todos los link caidos
 
todos los links caidos!
Para dejar un comentario Registrate! o.. eres ya usuario? Accede!