HIT: Historias de Canciones que Hicieron Historia


TÍTULO ORIGINAL: Hit
AÑO: 2008
DURACIÓN: 82 min.
PAÍS: Uruguay
DIRECTOR: Claudia Abend, Adriana Loeff
GUIÓN: Claudia Abend, Adriana Loeff
FOTOGRAFÍA: Amaral García, Pedro Luque
REPARTO: Documental
PRODUCTORA: Metropolis Films
GÉNERO: Documental. Musical | Biográfico. Histórico. Música

Cuenta la historia de algunas de las canciones uruguayas más populares de la segunda mitad del siglo XX. "No es que sean las mejores canciones, sino que tienen magia, se transforman, trascienden", comentó Abend, quien junto con su colega logró reunir 70 horas de material de archivo y rodó otras 50 horas de entrevistas y testimonios de 30 músicos uruguayos, que intentaron explicar, contar u opinar acerca de 5 canciones emblemáticas: Break it all, Brindis por Pierrot, A redoblar, Río de los pájaros y Príncipe Azul. 
Los 4 años que se dedicaron a la investigación se hacen explícitos en la calidad de los diálogos que se lograron, desde donde se desprenden citas que quedarán para la historia, como la confesión del Canario Luna, voz de Brindis por Pierrot: "No me gusta cantar. Lo agarré como changa, para comer con aceite", o la reflexión del ya fallecido Horacio Buscaglia autor de la letra de Príncipe Azul: "Me gusta mucho ver que la canción ya forma parte de la gente. Después de todo, uno hace lo que hace para que la gente lo quiera".


Hit tuvo un golpe de suerte ya que luego de reescribir por entero el guión para comenzar su montaje, en pleno proceso de postproducción, el proyecto llegó a manos del productor Fabio Berrutti, quien consiguió que Metrópolis Films participara como productor asociado y costeara la postproducción de imagen, sonido y el pasaje a 35 mm.



General
Format                                   : AVI
Format/Info                              : Audio Video Interleave
File size                                : 664 MiB
Duration                                 : 1h 21mn
Overall bit rate                         : 1 145 Kbps
Writing application                      : VirtualDubMod 1.5.10.2 (build 2540/release)
Writing library                          : VirtualDubMod build 2540/release

Video
ID                                       : 0
Format                                   : MPEG-4 Visual
Format profile                           : Advanced [email protected]
Format settings, BVOP                    : 2
Format settings, QPel                    : No
Format settings, GMC                     : No warppoints
Format settings, Matrix                  : Default (H.263)
Muxing mode                              : Packed bitstream
Codec ID                                 : XVID
Codec ID/Hint                            : XviD
Duration                                 : 1h 21mn
Bit rate                                 : 1 079 Kbps
Width                                    : 720 pixels
Height                                   : 576 pixels
Display aspect ratio                     : 5:4
Frame rate                               : 25.000 fps
Standard                                 : PAL
Color space                              : YUV
Chroma subsampling                       : 4:2:0
Bit depth                                : 8 bits
Scan type                                : Progressive
Compression mode                         : Lossy
Bits/(Pixel*Frame)                       : 0.104
Stream size                              : 626 MiB (94%)
Writing library                          : XviD 1.2.0.dev47 (UTC 2006-11-01)

Audio
ID                                       : 1
Format                                   : MPEG Audio
Format version                           : Version 2
Format profile                           : Layer 3
Mode                                     : Joint stereo
Mode extension                           : Intensity Stereo
Codec ID                                 : 55
Codec ID/Hint                            : MP3
Duration                                 : 1h 21mn
Bit rate mode                            : Constant
Bit rate                                 : 56.0 Kbps
Channel(s)                               : 2 channels
Sampling rate                            : 24.0 KHz
Compression mode                         : Lossy
Delay relative to video                  : 604ms
Stream size                              : 32.5 MiB (5%)
Alignment                                : Split accross interleaves





descargar peliculas - descargar programas
20 Puntos Score: 10/10
Visitas: 1599 Favoritos: 1
Ver los usuarios que votaron...
1 Comentarios HIT: Historias de Canciones que Hicieron Historia
BIEN AHI FLACO.
Para dejar un comentario Registrate! o.. eres ya usuario? Accede!
Facebook Identi