Los Piratas del Rock[MicroHD y VL][DUAL][720p]






The Boat That Rocked es una película de 2009 escrita y dirigida por Richard Curtis. Fue estrenada el 1 de abril de 2009 en Reino Unido y el 13 de noviembre de 2009 en Estados Unidos. En España se estrenó el 29 de Mayo con el título Radio Encubierta.
Es una comedia britanica basada en la historia de una radio pirata de los años 1960 que emitía música rock, pop y de protesta desde sus estudios en un barco petrolero abandonado y anclado en las aguas del norte de Inglaterra las 24 horas del día, cuando las radios locales y nacionales de Inglaterra sólo tenían permiso para emitir 45 minutos de música rock al día.



Formato: Mkv
Resolución VL: 1280x544

Resolución MicroHD: 1280x720
Peso VL: 1.31GB
Peso Micro HD: 2.39GB
Idioma VL: Español Latino e Ingles

Idioma MicroHD: Español Latino, Ingles y Portugues

MEDIA INFO VL:




File size                                : 1.31 GiB
Duration                                 : 2h 15mn
Overall bit rate                         : 1 393 Kbps

Video
ID                                       : 1
Format                                   : AVC
Format/Info                              : Advanced Video Codec
Format profile                           : [email protected]
Format settings, CABAC                   : Yes
Format settings, ReFrames                : 4 frames
Muxing mode                              : Header stripping
Codec ID                                 : V_MPEG4/ISO/AVC
Duration                                 : 2h 15mn
Nominal bit rate                         : 920 Kbps
Width                                    : 1 280 pixels
Height                                   : 544 pixels
Display aspect ratio                     : 2.35:1
Frame rate mode                          : Constant
Frame rate                               : 23.976 fps
Color space                              : YUV
Chroma subsampling                       : 4:2:0
Bit depth                                : 8 bits
Scan type                                : Progressive
Bits/(Pixel*Frame)                       : 0.055
Writing library                          : x264 core 128

Audio #1
ID                                       : 2
Format                                   : AC-3
Format/Info                              : Audio Coding 3
Mode extension                           : CM (complete main)
Format settings, Endianness              : Big
Muxing mode                              : Header stripping
Codec ID                                 : A_AC3
Duration                                 : 2h 15mn
Bit rate mode                            : Constant
Bit rate                                 : 320 Kbps
Channel(s)                               : 6 channels
Channel positions                        : Front: L C R, Side: L R, LFE
Sampling rate                            : 48.0 KHz
Bit depth                                : 16 bits
Compression mode                         : Lossy
Stream size                              : 309 MiB (23%)
Language                                 : Spanish
Default                                  : Yes
Forced                                   : No

Audio #2
ID                                       : 3
Format                                   : AAC
Format/Info                              : Advanced Audio Codec
Format profile                           : LC
Codec ID                                 : A_AAC
Duration                                 : 2h 15mn
Channel(s)                               : 2 channels
Channel positions                        : Front: L R
Sampling rate                            : 48.0 KHz
Compression mode                         : Lossy
Language                                 : English
Default                                  : No
Forced                                   : No


MEDIA INFO MicroHD:


File size                                : 3.00 GiB
Duration                                 : 2h 15mn
Overall bit rate                         : 3 165 Kbps

Video
ID                                       : 1
Format                                   : AVC
Format/Info                              : Advanced Video Codec
Format profile                           : [email protected]
Format settings, CABAC                   : No
Format settings, ReFrames                : 1 frame
Muxing mode                              : Header stripping
Codec ID                                 : V_MPEG4/ISO/AVC
Duration                                 : 2h 15mn
Nominal bit rate                         : 2 400 Kbps
Width                                    : 1 280 pixels
Height                                   : 720 pixels
Display aspect ratio                     : 16:9
Frame rate mode                          : Constant
Frame rate                               : 29.970 fps
Color space                              : YUV
Chroma subsampling                       : 4:2:0
Bit depth                                : 8 bits
Scan type                                : Progressive
Bits/(Pixel*Frame)                       : 0.087
Title                                    : by 14kmex[Solo en identi.li]

Audio #1
ID                                       : 2
Format                                   : AC-3
Format/Info                              : Audio Coding 3
Mode extension                           : CM (complete main)
Format settings, Endianness              : Big
Muxing mode                              : Header stripping
Codec ID                                 : A_AC3
Duration                                 : 2h 15mn
Bit rate mode                            : Constant
Bit rate                                 : 320 Kbps
Channel(s)                               : 6 channels
Channel positions                        : Front: L C R, Side: L R, LFE
Sampling rate                            : 48.0 KHz
Bit depth                                : 16 bits
Compression mode                         : Lossy
Stream size                              : 310 MiB (10%)
Title                                    : Latino by 14kmex[Solo en identi.li]
Language                                 : Spanish
Default                                  : Yes
Forced                                   : No

Audio #2
ID                                       : 3
Format                                   : AC-3
Format/Info                              : Audio Coding 3
Mode extension                           : CM (complete main)
Format settings, Endianness              : Big
Muxing mode                              : Header stripping
Codec ID                                 : A_AC3
Duration                                 : 2h 15mn
Bit rate mode                            : Constant
Bit rate                                 : 320 Kbps
Channel(s)                               : 6 channels
Channel positions                        : Front: L C R, Side: L R, LFE
Sampling rate                            : 48.0 KHz
Bit depth                                : 16 bits
Compression mode                         : Lossy
Stream size                              : 310 MiB (10%)
Title                                    : Ingles by 14kmex[Solo en identi.li]
Language                                 : English
Default                                  : No
Forced                                   : No

Audio #3
ID                                       : 4
Format                                   : AAC
Format/Info                              : Advanced Audio Codec
Format profile                           : Main
Codec ID                                 : A_AAC
Duration                                 : 2h 15mn
Channel(s)                               : 2 channels
Channel positions                        : Front: L R
Sampling rate                            : 44.1 KHz
Compression mode                         : Lossy
Title                                    : Portugues by 14kmex[Solo en identi.li]
Language                                 : Portuguese
Default                                  : No
Forced                                   : No









VL por JD:


Y si no usas JD acá los links VL:

MicroHD por JD:



Y si no usas JD acá los links MicroHD:
[/size][/color][/size][/color]



Programa para unir las partes File Splitter & Joiner:

Por JD:


Y si no usas JD acá el link de descarga:






Los Piratas del Rock[MicroHD y VL][DUAL][720p]
40 Puntos Score: 10/10
Visitas: 5614 Favoritos: 5
Ver los usuarios que votaron...
8 Comentarios Los Piratas del Rock[MicroHD y VL][DUAL][720p]
que buena pelicula...gracias descargando!
muchas gracias, la descargue sin problemas, excelente aporte!
Gracias hermanazo, bajando....saludazos  
cuando quiero unir las partes me pide contrase?
gracias amigo, a ver que tal
Muchas gracias! Hace rato que la vi en la TV y tenia que entrar a mi coleccion.  
Para dejar un comentario Registrate! o.. eres ya usuario? Accede!