El cartel de los Sapos - La película - DvrRip







Martín González es un niño de clase baja que descubre el mundo del tráfico de drogas en la forma de ascenso social, fundamentalmente, a ganar el amor de Sofía, una buena chica, una inalcanzable a priori, que es su amor desde la infancia. Su audacia, inconsciencia y los jóvenes lo llevan a convertirse en parte activa y vital de la peligrosa ?Cartel del Norte del Valle?, una organización criminal que se define como un dispositivo poderoso y sanguinario que superó el Cartel de Cali en el poder, la astucia militar de la corrupción y el poder económico. De varios años de drogas y apropiada (mala) amigos ayudaron a Martin para subir el sindicato, y, finalmente, conseguir la atención de Sofía y ganar su amor.



El cartel de los Sapos DVDRip | Español Latino | AVI | 768 MB | Narco | 2012 | Zippyshare

General
Sapos - DvdRip by NOTRUM08.avi
Format                           : AVI
Format/Info                      : Audio Video Interleave
File size                        : 750 MiB
Duration                         : 1h 46mn
Overall bit rate                 : 981 Kbps
Writing application              : Lavf53.32.100
Original source form/Name        : NUEVO

Video
ID                               : 0
Format                           : AVC
Format/Info                      : Advanced Video Codec
Bit rate                         : 778 Kbps
Width                            : 720 pixels
Height                           : 300 pixels
Display aspect ratio             : 2.40:1
Stream size                      : 595 MiB (79%)

Audio
ID                               : 1
Format                           : AC-3
Format/Info                      : Audio Coding 3
Mode extension                   : CM (complete main)
Bit rate                         : 192 Kbps
Stream size                      : 147 MiB (20%)











Enlaces De Descarga
El cartel de los Sapos - La película - DvrRip
13 Puntos Score: 6.5/10
Visitas: 2558 Favoritos: 5
Ver los usuarios que votaron...
4 Comentarios El cartel de los Sapos - La película - DvrRip
espero este buena la peli y gracias por el aporte  
Genial! Ya tenia algunos meses esperando encontrarla en una calidad como la que nos ofreces! Gracias
Gracias Amigo  
Para dejar un comentario Registrate! o.. eres ya usuario? Accede!