Oops.. Este post tiene los enlaces eliminados!

Identi revisa las denuncias de los usuarios en busca de enlaces eliminados que no dejan descargar los archivos, este mensaje te informa que este post que estas viendo tiene los enlaces eliminados.

Usa el Buscador

Por favor, te recomendamos que uses el buscador para encontrar más alternativas.

Los Vengadores BrRip Latino 720p - Mega

  • Categoría: Reciclaje
  • Publicado hace más de 3 años


Los Vengadores/The Avengers BRRIP Latino 720p - Mega




Hola compañeros de Identi. Ahora les traigo esta gran película que en lo personal me gusto mucho. Espero les guste y la disfruten




Marvel Studios presenta ?Marvel Los Vengadores?, el equipo de super héroes más espectacular de todos los tiempos con iconos como Iron Man, El Increíble Hulk, Thor, Capitán América, Ojo de Halcón y Viuda Negra. Cuando un enemigo inesperado amenaza con poner en peligro la seguridad mundial, Nick Fury, Director de la agencia internacional para el mantenimiento de la paz, conocida con el nombre de SHIELD, necesita encontrar urgentemente un equipo que salve al mundo del mayor de los desastres. Así empieza una búsqueda por todo el mundo para reclutar personal.



FICHA TECNICA


Titulo: Los Vengadores
Idioma: Español Latino
Calidad Video: BrRip 1280px x720px
Calidad Audio: AC3 5.1
Genero: Fantastico
Año: 2012
Duracion: 135Minutos
Formato: MKV
Tamaño: 1.28Gb



General

Complete name                    : Los Vengadores BRRIP-720p.mkv
Format                           : Matroska
File size                        : 1.28 GiB
Duration                         : 2h 22mn
Overall bit rate                 : 1 285 Kbps
Encoded date                     : UTC 2012-10-15 22:59:45
Writing application              : mkvmerge v5.1.0 ('And so it goes') built on Nov 28 2011 23:58:28
Writing library                  : libebml v1.2.3 + libmatroska v1.3.0

Video
ID                               : 1
Format                           : AVC
Format/Info                      : Advanced Video Codec
Format profile                   : [email protected]
Format settings, CABAC           : Yes
Format settings, ReFrames        : 4 frames
Muxing mode                      : Header stripping
Codec ID                         : V_MPEG4/ISO/AVC
Duration                         : 2h 22mn
Bit rate                         : 900 Kbps
Width                            : 1 280 pixels
Height                           : 720 pixels
Display aspect ratio             : 16:9
Frame rate                       : 23.976 fps
Color space                      : YUV
Chroma subsampling               : 4:2:0
Bit depth                        : 8 bits
Scan type                        : Progressive
Bits/(Pixel*Frame)               : 0.041
Stream size                      : 894 MiB (68%)
Title                            : video
Writing library                  : x264 core 98 r1649 20cbe10
Encoding settings                : cabac=1 / ref=3 / deblock=1:0:0 / analyse=0x3:0x113 / me=hex / subme=7 / psy=1 / psy_rd=1.00:0.00 / mixed_ref=1 / me_range=16 / chroma_me=1 / trellis=1 / 8x8dct=1 / cqm=0 / deadzone=21,11 / fast_pskip=1 / chroma_qp_offset=-2 / threads=12 / sliced_threads=0 / nr=0 / decimate=1 / interlaced=0 / constrained_intra=0 / bframes=3 / b_pyramid=2 / b_adapt=1 / b_bias=0 / direct=1 / weightb=1 / weightp=2 / keyint=250 / keyint_min=25 / scenecut=40 / intra_refresh=0 / rc_lookahead=40 / rc=2pass / mbtree=1 / bitrate=900 / ratetol=1.0 / qcomp=0.60 / qpmin=10 / qpmax=51 / qpstep=4 / cplxblur=20.0 / qblur=0.5 / ip_ratio=1.40 / aq=1:1.00
Language                         : Spanish

Audio
ID                               : 2
Format                           : AC-3
Format/Info                      : Audio Coding 3
Mode extension                   : CM (complete main)
Muxing mode                      : Header stripping
Codec ID                         : A_AC3
Duration                         : 2h 22mn
Bit rate mode                    : Constant
Bit rate                         : 384 Kbps
Channel(s)                       : 6 channels
Channel positions                : Front: L C R, Side: L R, LFE
Sampling rate                    : 48.0 KHz
Bit depth                        : 16 bits
Compression mode                 : Lossy
Stream size                      : 393 MiB (30%)
Title                            : Latino
Language                         : Spanish

Text
ID                               : 3
Format                           : UTF-8
Codec ID                         : S_TEXT/UTF8
Codec ID/Info                    : UTF-8 Plain Text
Language                         : Spanish










Enlaces De Descarga




NINGUNA



Me comentan cualquier cosa y si se caen los links para repararlos! Saludos!


Los Vengadores BrRip Latino 720p - Mega
26 Puntos Score: 5.2/10
Visitas: 20435 Favoritos: 5
Ver los usuarios que votaron...
14 Comentarios Los Vengadores BrRip Latino 720p - Mega
Gracias por tu aporte y descargando.  
Gracias amigo por tu aporte  
@abi_ds @memopr Gracias por pasar y comentar!
Amigo puedes revisar la primera parte, desde ayer se queda en 0KB tanto desde JDownloader como desde el navegador, las otras partes ya las tengo solo es esta, tal vez solo me pasa a mi por favor compru?
@JhonnyRodz Olvida mi comentario anterior hace 5 minutos me dejo descargar, talvez erarun error temporal del servidor. Disculpa la molestia te dejo los que me quedan  
Gracias amigo  
@edytemich @joluherdu @the_silent Gracias a ustedes por pasar y comentar Que la disfruten!!
Bajandooo..!! HD!! Amo Esa Calidad..!
Gracias Bro Por El Aporte..!
Este post esta cerrado y no se permiten comentarios.
Para dejar un comentario Registrate! o.. eres ya usuario? Accede!